Достать ножи: Стеклянная луковица

MVO

Добыча

Дубляж

Уэнсдэй

1 сезон

Тор

Дубляж

13 клиническая

1 сезон

Жестокая ночь

MVO

Одни из нас

1 сезон

Deluxe

pack

Рекомендуем

30

Пиратка

ВАЖНО

ВАЖНО

Ghostwire

Пиратка

jed

RePack

nioh2

RePack

RDR2

RePack

NEED FOR SPEED™ PAYBACK

RePack

скачать торрент

Кинопоиск HD

Острые козырьки 6 сезон

6 сезон

FAR CRY 6

RePack

скачать торрент

Лицензия

скачать торрент

MVO

1

1 сезон

скачать торрент

1 сезон

скачать торрент

Лицензия

  

Ночь в музее: Секрет гробницы / Night at the Museum: Secret of the Tomb (Шон Леви) [2014 г., фэнтези, комедия, приключения, семейный, BDRip 1080p, HEVC (10 bit), Дубляж Лицензия]

Ночь в музее: Секрет гробницы через торрент pb.wtf

Размер: 4.33 GB | Добавлен: 4 года 7 мес. назад | Торрент скачан:86 раз
Смотреть онлайн | Скачать | Поддержите нас   

17-06-2018 18:44 Ночь в музее: Секрет гробницы Скачать торрент  

Ночь в музее: Секрет гробницы / Night at the Museum: Secret of the Tomb
Год выпуска: 2014
Страна: США, Великобритания
Жанр: фэнтези, комедия, приключения, семейный
Продолжительность: 01:37:48
Перевод: Дубляж Лицензия
Субтитры: Русские (форсированные)

Режиссер: Шон Леви

rating

В ролях: Бен Стиллер, Робин Уильямс, Оуэн Уилсон, Стив Куган, Рики Джервэйс, Дэн Стивенс, Ребел Уилсон, Скайлер Джизондо, Рами Малек, Патрик Галлахер

Описание: Ночной сторож Музея естественной истории в Нью-Йорке Ларри Дэйли в отчаянии: его друзья-экспонаты начинают странно себя вести, а всё потому, что оживляющая их древнеегипетская золотая пластина разрушается. Только отец фараона Ахкменра знает тайну магического артефакта, но вот беда — его мумия далеко, она выставлена в Британском музее естествознания!
Доп. информация: -
H.265/HEVC (High Efficiency Video Coding) - это новый стандарт кодирования видео.
- Стандарт H.265/HEVC является логическим продолжением стандарта
H.264/AVC (Advanced Video Coding), и характеризуется более эффективными
алгоритмами сжатия, а также поддержкой высокого разрешения вплоть до 8K UHD
(8192x4320). Первая версия стандарта H.265 была опубликована в начале 2013 года.
- Рипы в фомате HEVC поддерживается не всеми аппаратными проигрывателями.
- Для корректного воспроизведения может потребоваться обновление ПО.
- Владельцам несовместимого железа просьба не беспокоить,
есть альтернативные релизы.
Качество: BDRip 1080p
Формат: MKV
Видео кодек: H.265
Аудио кодек: AC3
Видео: 1920x1036, ~5702 Kbps 10 bit
Аудио: AC3, 6 ch, 640 Kbps
Релиз от: [email protected] Семпл
Общее
Уникальный идентификатор : 126153783690053833163894701866735794740 (0x5EE855BFFB0CE1B713F2D787E2F67A34)
Полное имя : J:\ФИЛЬМЫ\Ночь в музее - Секрет гробницы (2014) BDRip 1080p [HEVC] 10 bit.mkv
Формат : Matroska
Версия формата : Version 4 / Version 2
Размер файла : 4,33 Гбайт
Продолжительность : 1 ч. 37 м.
Общий поток : 6344 Кбит/сек
Дата кодирования : UTC 2018-06-12 06:43:36
Программа кодирования : mkvmerge v19.0.0 ('Brave Captain') 64-bit
Библиотека кодирования : libebml v1.3.5 + libmatroska v1.4.8
Обложка : Yes
Attachments : cover.jpg

Видео
Идентификатор : 1
Формат : HEVC
Формат/Информация : High Efficiency Video Coding
Профиль формата : Main [email protected]@High
Идентификатор кодека : V_MPEGH/ISO/HEVC
Продолжительность : 1 ч. 37 м.
Битрейт : 5702 Кбит/сек
Ширина : 1920 пикселей
Высота : 1036 пикселей
Соотношение сторон : 1,85:1
Режим частоты кадров : Постоянный
Частота кадров : 23,976 (24000/1001) кадра/сек
Цветовое пространство : YUV
Субдискретизация насыщенности : 4:2:0
Битовая глубина : 10 бит
Бит/(Пиксели*Кадры) : 0.120
Размер потока : 3,90 Гбайт (90%)
Библиотека кодирования : x265 2.7+336-07defe235cde:[Windows][clang 7.0.0][64 bit] 10bit
Настройки программы : cpuid=1049583 / frame-threads=5 / numa-pools=4 / wpp / no-pmode / no-pme / no-psnr / no-ssim / log-level=3 / input-csp=1 / input-res=1920x1036 / interlace=0 / total-frames=0 / level-idc=51 / high-tier=1 / uhd-bd=0 / ref=2 / allow-non-conformance / no-repeat-headers / annexb / no-aud / no-hrd / info / hash=0 / no-temporal-layers / open-gop / min-keyint=24 / keyint=240 / gop-lookahead=0 / bframes=3 / b-adapt=2 / b-pyramid / bframe-bias=0 / rc-lookahead=20 / lookahead-slices=6 / scenecut=40 / radl=0 / no-intra-refresh / ctu=64 / min-cu-size=8 / no-rect / no-amp / max-tu-size=32 / tu-inter-depth=1 / tu-intra-depth=1 / limit-tu=0 / rdoq-level=0 / dynamic-rd=0.00 / no-ssim-rd / signhide / no-tskip / nr-intra=0 / nr-inter=0 / no-constrained-intra / strong-intra-smoothing / max-merge=2 / limit-refs=3 / no-limit-modes / me=1 / subme=7 / merange=57 / temporal-mvp / weightp / no-weightb / no-analyze-src-pics / deblock=-3:-3 / sao / no-sao-non-deblock / rd=3 / no-early-skip / rskip / no-fast-intra / no-tskip-fast / no-cu-lossless / no-b-intra / no-splitrd-skip / rdpenalty=0 / psy-rd=2.00 / psy-rdoq=0.00 / no-rd-refine / no-lossless / cbqpoffs=0 / crqpoffs=0 / rc=crf / crf=18.0 / qcomp=0.60 / qpstep=4 / stats-write=0 / stats-read=0 / vbv-maxrate=160000 / vbv-bufsize=160000 / vbv-init=0.9 / crf-max=0.0 / crf-min=0.0 / ipratio=1.40 / pbratio=1.30 / aq-mode=1 / aq-strength=1.00 / cutree / zone-count=0 / no-strict-cbr / qg-size=32 / no-rc-grain / qpmax=69 / qpmin=0 / no-const-vbv / sar=1 / overscan=0 / videoformat=5 / range=0 / colorprim=2 / transfer=2 / colormatrix=2 / chromaloc=0 / display-window=0 / max-cll=0,0 / min-luma=0 / max-luma=1023 / log2-max-poc-lsb=8 / vui-timing-info / vui-hrd-info / slices=1 / no-opt-qp-pps / no-opt-ref-list-length-pps / no-multi-pass-opt-rps / scenecut-bias=0.05 / no-opt-cu-delta-qp / no-aq-motion / no-hdr / no-hdr-opt / no-dhdr10-opt / no-idr-recovery-sei / analysis-reuse-level=5 / scale-factor=0 / refine-intra=0 / refine-inter=0 / refine-mv=0 / no-limit-sao / ctu-info=0 / no-lowpass-dct / refine-mv-type=0 / copy-pic=1 / max-ausize-factor=1.0 / no-dynamic-refine / no-single-sei
Язык : English
Default : Да
Forced : Нет

Аудио
Идентификатор : 2
Формат : AC-3
Формат/Информация : Audio Coding 3
Идентификатор кодека : A_AC3
Продолжительность : 1 ч. 37 м.
Вид битрейта : Постоянный
Битрейт : 640 Кбит/сек
Каналы : 6 каналов
Расположение каналов : Front: L C R, Side: L R, LFE
Частота : 48,0 КГц
Частота кадров : 31,250 кадров/сек (1536 SPF)
Битовая глубина : 16 бит
Метод сжатия : С потерями
Размер потока : 448 Мбайт (10%)
Заголовок : Дубляж
Язык : Russian
ServiceKind/String : Complete Main
Default : Да
Forced : Нет

Текст
Идентификатор : 3
Формат : UTF-8
Идентификатор кодека : S_TEXT/UTF8
Идентификатор кодека/Информация : UTF-8 Plain Text
Продолжительность : 1 ч. 36 м.
Битрейт : 0 бит/сек
ElementCount : 4
Размер потока : 185 байт (0%)
Заголовок : Forced
Язык : Russian
Default : Да
Forced : Нет




Скачать Ночь в музее: Секрет гробницы через торрент https://b.radikal.ru/b25/1806/e7/85c6c1be6b43.jpg Скачать, смотреть онлайн Ночь в музее: Секрет гробницы бесплантно в хорошем качестве Описание: Ночной сторож Музея естественной истории в Нью-Йорке Ларри Дэйли в отчаянии: его друзья-экспонаты начинают странно себя вести, а ... 10 10 5
Торрент: Зарегистрирован [2018-06-17 18:44] · скачан: 86 раз
Статус: √ проверено
Размер: 4.33 GB
Как cкачать? Как скачать Ночь в музее: Секрет гробницы через торрент | UTorrent

% Раздел Тема Автор DL S | L
# Фильмы 2014 [DVDrip, WEB-DLRip, HDrip] [ 2.03 GB ] Ночь в музее: Секрет гробницы / Night at the Museum: Secret of the Tomb | Лицензия" | HDRip, Дубляж,"Лицензия" coc900 Скачать
1 | 1
Фильмы 2014 [DVDrip, WEB-DLRip, HDrip] [ 2.18 GB ] Ночь в музее: Секрет гробницы / Night at the Museum: Secret of the Tomb | Лицензия | HDRip-AVC, Дубляж, Лицензия vovan Скачать
1 | 0
Фильмы 2014 [DVDrip, WEB-DLRip, HDrip] [ 1.37 GB ] Ночь в музее: Секрет гробницы / Night at the Museum: Secret of the Tomb | Лицензия | HDRip, Дубляж - Лицензия / iTunes _KaisiK_ Скачать
1 | 0

28-11-2019 20:33  


Отключить вcю реклaмy на сайте, в т.ч. и в плеере онлайн просмотра!

17-06-2018 21:03 Ночь в музее: Секрет гробницы Скачать торрент  

подъ*б, а не фильм, звук есть, картинки куй



    Дорогой пользователь! Огромная просьба, поблагодарите релизера, оцените раздачу и оставьте свои комментарий, если Вы скачали Ночь в музее: Секрет гробницы через торрент бесплатно!!
    Комментировать посты могут только пользователи прошедшие не сложную регистрацию
    Показать сообщения:    


    Ночь в музее: Секрет гробницы через торрент
    Скачать бесплатно Ночь в музее: Секрет гробницы
    Ночь в музее: Секрет гробницы скачать торрент
    Ночь в музее: Секрет гробницы смотреть онлайн
    Cкачать фильм Ночь в музее: Секрет гробницы бесплатно
    Ночь в музее: Секрет гробницы скачать торрент в хорошем качестве
    Ночь в музее: Секрет гробницы смотреть онлайн бесплатно в хорошем качестве
    Вы не можете начинать темы
    Вы не можете отвечать на сообщения
    Вы не можете редактировать свои сообщения
    Вы не можете удалять свои сообщения
    Вы не можете голосовать в опросах
    Вы не можете прикреплять файлы к сообщениям
    Вы можете скачивать файлы
    Ночь в музее: Секрет гробницы / Night at the Museum: Secret of the Tomb [2014 г., фэнтези, комедия, приключения, семейный, BDRip 1080p, HEVC , Дубляж Лицензия] смотреть онлайн, скачать торрент picoco.icu