2 сезон

iTunes

MVO

1

2 сезон

iTunes

iTunes

1 сезон

RePack

30

Новинка

ВАЖНО

ИГРА 18+

pack

RePack

MK11
pack

Легкие деньги

RePack

jed

RePack

fifa19

RePack

RDR2

RePack

NEED FOR SPEED™ PAYBACK

4 сезон

9 сезон

Бесстыжие 9 сезон

Все сериалы

все сериалы на PB.wtf

RePack

FAR CRY 5

Anonymous, доброй ночи, мы не успеваем собрать деньги на оплату серверов за декабрь и январь, помогите нам пожалуйста в это трудное время. В качестве благодарности мы отключим Вам всю рекламу на сайте (укажите свой ник в строку Ваше имя)!

×
  
Magnet ссылка

Большая игра / Molly's Game (Аарон Соркин) [2017, драма, биография, BDRip-AVC] DUB [Лицензия] - ExKinoRay pb.wtf

Большая игра через торрент pb.wtf

Размер: 2.97 GB | Добавлен: 2 года 7 мес. назад | Торрент скачан:146 раз
Скачать  

17-06-2018 18:49 Большая игра Скачать торрент  

Информация о фильме
Название: Большая игра
Оригинальное название: Molly's Game
Год выпуска: 2017
Жанр: Драма, биография
Страна: США, Китай
Студия: STX Entertainment, Huayi Brothers Pictures, The Mark Gordon Company
Продолжительность: 02:21:01
Перевод: Дублированный | Лицензия BD RUS
Субтитры: Русские, английские
Режиссер: Аарон Соркин
В ролях: Джессика Честейн, Идрис Эльба, Кевин Костнер, Майкл Сера, Джереми Стронг, Крис О`Дауд, Дж.С. МакКензи, Брайан Д`Арси Джеймс, Билл Кэмп, Грэм Грин

Описание:
Когда Блум переехала из Колорадо в Лос-Анджелес, она ничего не знала о покере. За плечами были несостоявшаяся карьера олимпийской чемпионки, зависть к братьям, достигшим успеха в спорте, проблемные отношения с отцом. Она устроилась на работу в офис, и начальник, близкий к голливудским знаменитостям, поручил ей организовать покерный клуб. Постепенно Молли втянулась. Ей нравилось находиться в окружении богатых и наделенных властью мужчин, имея собственную Влacть над ними. Вскоре Блум организовала свой клуб. В него, если верить ее мемуарам, приходили играть Бен Аффлек, Леонардо ДиКаприо и Тоби Магуайр. Через несколько лет обстоятельства вынудили Молли переехать с нелегальным клубом в Нью-Йорк, где ставки выросли, а в игру включились представители русской мафии. Вместе с ними Молли и повязали агенты ФБР в 2013 году. Однако девушке удалось доказать, что она лишь была организатором игры в покер, а к мафии и отмыванию денег не имела никакого отношения.

rating

Файл
Формат: MKV
Качество: BDRip-AVC
Видео: AVC, 1152х480 (2.40:1), 2121 kbps, 23.976 fps, 0,160 bpp
Аудио 1: 48 kHz, AC3, 5.1, 448 Kbps | RUS |
Аудио 2: 48 kHz, AC3, 5.1, 448 Kbps | ENG |
General
Unique ID : 181474044532360713120352415037096623996 (0x8886A130B3E18EB0839C3FBEF6267F7C)
Complete name : D:\Molly.s.Game.2017.BDRip.AVC.ExKinoRay.mkv
Format : Matroska
Format version : Version 2
File size : 2.97 GiB
Duration : 2 h 21 min
Overall bit rate : 3 015 kb/s
Movie name : Mollys Game 2017 from ExKinoRay
Encoded date : UTC 2018-06-17 18:28:48
Writing application : mkvmerge v5.6.0 ('Kenya Kane') built on May 27 2012 16:44:04
Writing library : libebml v1.2.3 + libmatroska v1.3.0

Video
ID : 1
Format : AVC
Format/Info : Advanced Video Codec
Format profile : High@L4.1
Format settings, CABAC : Yes
Format settings, ReFrames : 12 frames
Codec ID : V_MPEG4/ISO/AVC
Duration : 2 h 21 min
Bit rate : 2 121 kb/s
Width : 1 152 pixels
Height : 480 pixels
Display aspect ratio : 2.40:1
Frame rate mode : Constant
Frame rate : 23.976 (24000/1001) FPS
Original frame rate : 23.976 (23976/1000) FPS
Color space : YUV
Chroma subsampling : 4:2:0
Bit depth : 8 bits
Scan type : Progressive
Bits/(Pixel*Frame) : 0.160
Stream size : 2.03 GiB (68%)
Title : Enigma
Writing library : x264 core 152 r2851 ba24899
Encoding settings : cabac=1 / ref=12 / deblock=1:-2:-2 / analyse=0x3:0x113 / me=umh / subme=10 / psy=1 / psy_rd=1.04:0.10 / mixed_ref=1 / me_range=32 / chroma_me=1 / trellis=2 / 8x8dct=1 / cqm=0 / deadzone=21,11 / fast_pskip=0 / chroma_qp_offset=-3 / threads=12 / lookahead_threads=3 / sliced_threads=0 / nr=0 / decimate=0 / interlaced=0 / bluray_compat=0 / constrained_intra=0 / bframes=14 / b_pyramid=2 / b_adapt=2 / b_bias=0 / direct=3 / weightb=1 / open_gop=0 / weightp=2 / keyint=240 / keyint_min=23 / scenecut=40 / intra_refresh=0 / rc_lookahead=40 / rc=2pass / mbtree=0 / bitrate=2121 / ratetol=1.0 / qcomp=0.65 / qpmin=0 / qpmax=51 / qpstep=4 / cplxblur=20.0 / qblur=0.5 / vbv_maxrate=50000 / vbv_bufsize=62500 / nal_hrd=none / filler=0 / ip_ratio=1.40 / pb_ratio=1.30 / aq=3:0.90
Default : Yes
Forced : No
Color range : Limited
Color primaries : BT.709
Transfer characteristics : BT.709
Matrix coefficients : BT.709

Audio #1
ID : 2
Format : AC-3
Format/Info : Audio Coding 3
Mode extension : CM (complete main)
Format settings, Endianness : Big
Codec ID : A_AC3
Duration : 2 h 21 min
Bit rate mode : Constant
Bit rate : 448 kb/s
Channel(s) : 6 channels
Channel positions : Front: L C R, Side: L R, LFE
Sampling rate : 48.0 kHz
Frame rate : 31.250 FPS (1536 spf)
Compression mode : Lossy
Stream size : 452 MiB (15%)
Title : Dub (Blu-Ray)
Language : Russian
Default : Yes
Forced : No

Audio #2
ID : 3
Format : AC-3
Format/Info : Audio Coding 3
Mode extension : CM (complete main)
Format settings, Endianness : Big
Codec ID : A_AC3
Duration : 2 h 21 min
Bit rate mode : Constant
Bit rate : 448 kb/s
Channel(s) : 6 channels
Channel positions : Front: L C R, Side: L R, LFE
Sampling rate : 48.0 kHz
Frame rate : 31.250 FPS (1536 spf)
Compression mode : Lossy
Stream size : 452 MiB (15%)
Language : English
Default : No
Forced : No

Text #1
ID : 4
Format : UTF-8
Codec ID : S_TEXT/UTF8
Codec ID/Info : UTF-8 Plain Text
Language : Russian
Default : No
Forced : No

Text #2
ID : 5
Format : UTF-8
Codec ID : S_TEXT/UTF8
Codec ID/Info : UTF-8 Plain Text
Language : English
Default : No
Forced : No

Menu
00:00:00.000 : en:Chapter 1
00:05:54.479 : en:Chapter 2
00:09:55.052 : en:Chapter 3
00:16:53.137 : en:Chapter 4
00:24:03.108 : en:Chapter 5
00:29:16.504 : en:Chapter 6
00:39:01.589 : en:Chapter 7
00:48:11.346 : en:Chapter 8
00:54:00.153 : en:Chapter 9
01:04:07.260 : en:Chapter 10
01:11:10.391 : en:Chapter 11
01:18:03.679 : en:Chapter 12
01:23:10.986 : en:Chapter 13
01:29:09.927 : en:Chapter 14
01:34:19.904 : en:Chapter 15
01:44:30.430 : en:Chapter 16
01:53:43.274 : en:Chapter 17
02:01:38.249 : en:Chapter 18
02:07:20.466 : en:Chapter 19
02:13:24.997 : en:Chapter 20
Релиз от:

Автор релиза: pb.wtf



Скачать Большая игра через торрент https://i100.fastpic.ru/big/2018/0326/ac/b64a9de8c02d581da18d4d6af860fcac.png Скачать фильм Большая игра через торрент бесплантно в хорошем качестве Описание: Когда Блум переехала из Колорадо в Лос-Анджелес, она ничего не знала о покере. За плечами были несостоявшаяся карьера олимпийской ... 10 10 4
Info! Золотая раздача, скачанное не засчитывается.
Торрент: Зарегистрирован [2018-06-17 18:49] · скачан: 146 раз
Статус: √ проверено
Размер: 2.97 GB
Как cкачать? Как скачать Большая игра через торрент | UTorrent

28-11-2019 20:33  

Отключить всю рекламу на сайте

    Дорогой пользователь! Огромная просьба, поблагодарите релизера, оцените раздачу и оставьте свои комментарий, если Вы скачали Большая игра через торрент бесплатно! Внесите свою лепту в развитие PiratBit!
    Комментировать посты могут только пользователи прошедшие не сложную регистрацию
    Показать сообщения:    

    Большая игра через торрент
    Скачать бесплатно Большая игра
    Большая игра скачать торрент
    Большая игра смотреть онлайн
    Cкачать фильм Большая игра бесплатно
    Большая игра скачать торрент в хорошем качестве
    Большая игра смотреть онлайн бесплатно в хорошем качестве


    Вы не можете начинать темы
    Вы не можете отвечать на сообщения
    Вы не можете редактировать свои сообщения
    Вы не можете удалять свои сообщения
    Вы не можете голосовать в опросах
    Вы не можете прикреплять файлы к сообщениям
    Вы можете скачивать файлы