новый адрес
Мега распродажа FORZA HORIZON 4 ULTIMATE+ВСЕ DLC+ОНЛАЙН всего за 499р. 349 руб. (супер цена). Внимание количество ограничено!!!

iTunes

1+1

iTunes

мы

iTunes

1

iTunes

Чернобыль

iTunes

Ральф против интернета

Лицензия

ПШазам

Лицензия

Оно 2

Лицензия

30
pack

ВАЖНО

!!Акция!!

Alien_RageХит недели

RePack

Resident Evil 21

ИГРА 18+

pack

RePack

Metro:Exodus

!!Акция!!

Alien_Rage

RePack

fifa19

RePack

Assassins Creed: Odyssey

RePack

NEED FOR SPEED™ PAYBACK

3 сезон

9 сезон

Бесстыжие 9 сезон

Все сериалы

все сериалы на PB.wtf

RePack

FAR CRY 5
Ребята, катастрофически не хватает 1900р. для оплаты серверов за Октябрь (всвязи с блокировками трафик упал в 3 раза), 1-2р., выручайте.
  

Самолет уходит в 9 (Юрий Лысенко) [1960, СССР, мелодрама, SATRip от AVP Studio] pb.wtf

Самолет уходит в 9 через торрент pb.wtf

Размер: 745 MB | Добавлен: 1 год 5 мес. назад | Торрент скачан:11 раз
Скачать  

18-06-2018 07:34 Самолет уходит в 9 Скачать торрент  

Самолет уходит в 9
Страна: СССР
Производство: Киностудия им. А. Довженко

Жанр: мелодрама
Год выпуска: 1960
Продолжительность: 01:26:45

Перевод: Не требуется
Cубтитры: нет
Оригинальная аудиодорожка: русский

Режиссер: Юрий Лысенко

В ролях:
Сильвия Сергейчикова, Анатолий Федоринов, Юрий Боголюбов, Наташа Галян-Никольская, Анна Николаева, Константин Артеменко, Полина Куманченко, Артем Тарский, Владимир Божко, Тамара Алёшина...
Об актёрах подробней

Описание:
Нелегко складывалась судьба Любы (Сильвия Сергейчикова). Оставшись сиротой в войну, она бросила школу и пошла работать. Человек, которого она любила, оставил ее с дочкой на руках. Люба работает официанткой, в свободное время встречается с Сергеем (Юрий Боголюбов), который не хочет жениться на Любе из-за дочери. Закончив первый класс, Леночка, дочь Любы приносит домой награду за хорошую учебу, и это побуждает Любу пойти в вечернюю школу. В учебе ей помогает инженер-монтажник Долина (Анатолий Федоринов), знакомство с которым пробуждает все лучшее в душе Любы. Так начинается их любовь. А когда заканчивается строительство и Долине надо уезжать, то Люба и Леночка едут вместе с ним.

Исходник: DVB
Качество видео: SATRip
Формат видео: AVI

Видео: 688x368 (1,85:1), 25,000 кадров/сек, XviD ~ 999 kbps avg, 0.158 bit/pixel
Аудио: 48 kHz, Dolby Digital AC3 2.0, 192 kbps

Раздача от:
Общее
Полное имя : Samolet.uhodit.v.9.1960.SATRip_[New-team]_by_AVP_Studio.avi
Формат : AVI
Формат/Информация : Audio Video Interleave
Размер файла : 745 Мбайт
Продолжительность : 1 ч. 26 м.
Общий поток : 1200 Кбит/сек
Программа кодирования : VirtualDubMod 1.5.10.3 | www.virtualdub-fr.org || (build 2550/release)
Библиотека кодирования : VirtualDubMod build 2550/release

Видео
Идентификатор : 0
Формат : MPEG-4 Visual
Профиль формата : Advanced Simple@L5
Настройки формата : BVOP1 / Custom Matrix
Параметр BVOP формата : 1
Параметр QPel формата : Нет
Параметр GMC формата : Без точки перехода
Параметр матрицы формата : Выборочная
Идентификатор кодека : XVID
Идентификатор кодека/Подсказка : XviD
Продолжительность : 1 ч. 26 м.
Битрейт : 999 Кбит/сек
Ширина : 688 пикселей
Высота : 368 пикселей
Соотношение сторон : 1,85:1
Частота кадров : 25,000 кадров/сек
Цветовое пространство : YUV
Субдискретизация насыщенности : 4:2:0
Битовая глубина : 8 бит
Тип развёртки : Прогрессивная
Метод сжатия : С потерями
Бит/(Пиксели*Кадры) : 0.158
Размер потока : 620 Мбайт (83%)
Библиотека кодирования : XviD 73

Аудио
Идентификатор : 1
Формат : AC-3
Формат/Информация : Audio Coding 3
Идентификатор кодека : 2000
Продолжительность : 1 ч. 26 м.
Вид битрейта : Постоянный
Битрейт : 192 Кбит/сек
Каналы : 2 канала
Расположение каналов : Front: L R
Частота : 48,0 КГц
Частота кадров : 31,250 кадров/сек (1536 SPF)
Битовая глубина : 16 бит
Метод сжатия : С потерями
Размер потока : 119 Мбайт (16%)
Выравнивание : Разделение по промежуткам
Продолжительность промежутка : 40 мс. (1,00 видеокадр)
Время предзагрузки промежутка : 500 мс
pb.wtf



Скачать Самолет уходит в 9 через торрент http://picplus.ru/img/1806/18/87b7dd36.png Скачать фильм Самолет уходит в 9 через торрент бесплантно в хорошем качестве Описание:Нелегко складывалась судьба Любы (Сильвия Сергейчикова). Оставшись сиротой в войну, она бросила школу и пошла работать. Человек, ... 5 10 1
Info! Золотая раздача, скачанное не засчитывается.
Торрент: Зарегистрирован [2018-06-18 07:34] · скачан: 11 раз
Статус: √ проверено
Размер: 745 MB
Как cкачать? Как скачать Самолет уходит в 9 через торрент | qTorrent

% Раздел Тема Автор DL S | L
Кино СССР [ 744 MB ] Самолет уходит в 9 [1960 СССР SATRip-AVC от AVP Studio] AVP Studio Скачать
1 | 0


>> Регистрируемся здесь <<






Отзывы и комментарии о схеме читаем и пишем здесь: ---> Отзывы и комментарии о схеме

Новые благодарочки в телеграм довольных пользователей:
скриншот   скриншот   скриншот   скриншот   скриншот

18-06-2018 10:16 Самолет уходит в 9 Скачать торрент  

ОЧЕНЬ ИНФОРМАТИВНЫЙ ЧЕТВЁРТЫЙ СКРИН))))))...МНОГО ОБЕЩАЮЩИЙ!!! pb.wtf



    Дорогой пользователь! Огромная просьба, поблагодарите релизера, оцените раздачу и оставьте свои комментарий, если Вы скачали Самолет уходит в 9 через торрент бесплатно! Внесите свою лепту в развитие PiratBit!
    Комментировать посты могут только пользователи прошедшие не сложную регистрацию
    Показать сообщения:    

    Самолет уходит в 9 через торрент
    Скачать бесплатно Самолет уходит в 9
    Самолет уходит в 9 скачать торрент
    Самолет уходит в 9 смотреть онлайн
    Cкачать фильм Самолет уходит в 9 бесплатно
    Самолет уходит в 9 скачать торрент в хорошем качестве
    Самолет уходит в 9 смотреть онлайн бесплатно в хорошем качестве


    Вы не можете начинать темы
    Вы не можете отвечать на сообщения
    Вы не можете редактировать свои сообщения
    Вы не можете удалять свои сообщения
    Вы не можете голосовать в опросах
    Вы не можете прикреплять файлы к сообщениям
    Вы можете скачивать файлы