Ссылка на приватное зеркало нашего сайта всего за 1$. Внимание количество ограничено!!!

2 сезон

iTunes

1 сезон

1

iTunes

iTunes

iTunes

1 сезон

RePack

30

ИГРА 18+

pack

ВАЖНО

!!Акция!!

Alien_RageХит недели

RePack

MK11
pack

Забери бонус

RePack

jed

!!Акция!!

Alien_Rage

RePack

fifa19

RePack

Assassins Creed: Odyssey

RePack

NEED FOR SPEED™ PAYBACK

4 сезон

9 сезон

Бесстыжие 9 сезон

Все сериалы

все сериалы на PB.wtf

RePack

FAR CRY 5
  

Наркотрафик / Сезон: 1 / Серии: 1-24 из 24 (Наталия Бучнева, Николай Борц) [2012, Боевик, детектив, криминал, HDTVRip] pb.wtf

Наркотрафик через торрент pb.wtf

Размер: 13.01 GB | Добавлен: 2 года 4 мес. назад | Торрент скачан:136 раз
Скачать  

18-06-2018 10:57 Наркотрафик Скачать торрент  

НаркотрафикГод выпуска: 2012
Страна: Россия
Жанр: Боевик, детектив, криминал
Продолжительность: ~ 00:45:00 серия
Субтитры: отсутствуют

Режиссер: Наталия Бучнева, Николай Борц

rating

В ролях:

Роман Грибков, Анастасия Задорожная, Денис Синявский, Тара Амирханова, Константин Воробьёв, Сергей Барковский, Иван Мартынов, Александр Орловский, Олег Алмазов, Андрей Полищук и др.

Описание:

Фильм снят по мотивам романа Сергея Соболева «Танцы с волками». В России все больше жертв нового наркотика. "Дикий мед" - сильнейший допинг, способный даже "ботаника" наделить нечеловеческой силой и агрессивностью хищника. На вид - обычный пластырь. Привыкание - с первой дозы. Как оказалось, это секретная разработка еще времен СССР, которая теперь она попала в руки преступников. О них ничего не известно - преступная организация возникла как будто из ниоткуда, но размах впечатляет: ее боятся местные наркобароны, она стремиться завоевать международный рынок. Это могущественный, расчетливый, жестокий противник. Чтобы обезвредить его, создается специальная группа.

Качество: HDTVRip
Формат: AVI

Видео: 720x400, 25.000 fps, ~ 1507 Kbps
Аудио: AC-3, 48.0 KHz, 2 ch, 192 Kbps
скриншот   скриншот   скриншот   скриншот  

Общее
Полное имя : E:\Narkotrafik_1-24iz24_2011_XviD_HDTVRip\01.Все для победы.(1 сер.).avi
Формат : AVI
Формат/Информация : Audio Video Interleave
Размер файла : 554 Мбайт
Продолжительность : 45 м. 21 с.
Общий поток : 1708 Кбит/сек
Библиотека кодирования : VirtualDub build 35491/release

Видео
Идентификатор : 0
Формат : MPEG-4 Visual
Профиль формата : Advanced Simple@L5
Настройки формата : BVOP2
Параметр BVOP формата : 2
Параметр QPel формата : Нет
Параметр GMC формата : Без точки перехода
Параметр матрицы формата : Default (H.263)
Идентификатор кодека : XVID
Идентификатор кодека/Подсказка : XviD
Продолжительность : 45 м. 21 с.
Битрейт : 1507 Кбит/сек
Ширина : 720 пикселей
Высота : 400 пикселей
Соотношение сторон : 16:9
Частота кадров : 25,000 кадров/сек
Цветовое пространство : YUV
Субдискретизация насыщенности : 4:2:0
Битовая глубина : 8 бит
Тип развёртки : Прогрессивная
Метод сжатия : С потерями
Бит/(Пиксели*Кадры) : 0.209
Размер потока : 489 Мбайт (88%)
Библиотека кодирования : XviD 67

Аудио
Идентификатор : 1
Формат : AC-3
Формат/Информация : Audio Coding 3
Идентификатор кодека : 2000
Продолжительность : 45 м. 21 с.
Вид битрейта : Постоянный
Битрейт : 192 Кбит/сек
Каналы : 2 канала
Расположение каналов : Front: L R
Частота : 48,0 КГц
Частота кадров : 31,250 кадров/сек (1536 SPF)
Битовая глубина : 16 бит
Метод сжатия : С потерями
Размер потока : 62,3 Мбайт (11%)
Выравнивание : Соединение по промежуткам
Продолжительность промежутка : 40 мс. (1,00 видеокадр)
Время предзагрузки промежутка : 512 мс.
ServiceKind/String : Complete Main

pb.wtf



Скачать Наркотрафик через торрент http://img12.lostpic.net/2018/06/18/1454b3b2376b29192bc3fa804e156864.jpg Скачать фильм Наркотрафик через торрент бесплантно в хорошем качестве Описание: Фильм снят по мотивам романа Сергея Соболева «Танцы с волками». В России все больше жертв нового наркотика. "Дикий мед" - ... 7.6 10 7
Торрент: Зарегистрирован [2018-06-18 10:57] · скачан: 136 раз
Статус: √ проверено
Размер: 13.01 GB
Как cкачать? Как скачать Наркотрафик через торрент | qTorrent

% Раздел Тема Автор DL S | L
Наши сериалы [ 12.52 GB ] Наркотрафик / Сезон: 1 / [2012 SATRip] -=Cherry=- Скачать
1 | 0

28-11-2019 20:33  

Отключить всю рекламу на сайте

    Дорогой пользователь! Огромная просьба, поблагодарите релизера, оцените раздачу и оставьте свои комментарий, если Вы скачали Наркотрафик через торрент бесплатно! Внесите свою лепту в развитие PiratBit!
    Комментировать посты могут только пользователи прошедшие не сложную регистрацию
    Показать сообщения:    

    Наркотрафик через торрент
    Скачать бесплатно Наркотрафик
    Наркотрафик скачать торрент
    Наркотрафик смотреть онлайн
    Cкачать фильм Наркотрафик бесплатно
    Наркотрафик скачать торрент в хорошем качестве
    Наркотрафик смотреть онлайн бесплатно в хорошем качестве


    Вы не можете начинать темы
    Вы не можете отвечать на сообщения
    Вы не можете редактировать свои сообщения
    Вы не можете удалять свои сообщения
    Вы не можете голосовать в опросах
    Вы не можете прикреплять файлы к сообщениям
    Вы можете скачивать файлы