Ссылка на приватное зеркало нашего сайта всего за 1$. Внимание количество ограничено!!!

2 сезон

iTunes

1 сезон

1

iTunes

iTunes

iTunes

1 сезон

RePack

30

ИГРА 18+

pack

ВАЖНО

!!Акция!!

Alien_RageХит недели

RePack

MK11
pack

Забери бонус

RePack

jed

!!Акция!!

Alien_Rage

RePack

fifa19

RePack

Assassins Creed: Odyssey

RePack

NEED FOR SPEED™ PAYBACK

4 сезон

9 сезон

Бесстыжие 9 сезон

Все сериалы

все сериалы на PB.wtf

RePack

FAR CRY 5
  

Пелена / Сезон: 1 / Серии: 1-10 из 10 (Валерий Ибрагимов) [2018, Детектив, мелодрама, SATRip-AVC] pb.wtf

Пелена через торрент pb.wtf

Размер: 5.93 GB | Добавлен: 2 года 4 мес. назад | Торрент скачан:201 раз
Скачать  

18-06-2018 11:28 Пелена Скачать торрент  

ПеленаГод выпуска: 2018
Страна: Украина
Жанр: Детектив, мелодрама
Продолжительность: ~ 00:50:00
Перевод: Не требуется
Субтитры: отсутствуют

Режиссер: Валерий Ибрагимов

В ролях:

Владимир Горянский, Александра Булычёва, Алексей Тритенко, Андрей Чадов, Олеся Жураковская, Лев Сомов, Ирина Мак

Описание:

Оксана – журналистка, специализирующаяся на громких коррупционных делах. Кирилл – следователь по особо тяжким преступлениям, которому эта журналистка изрядно портит жизнь. На первый взгляд, они враги, а на самом деле – супруги на грани развода. Из-за своего расследования Оксана попадает в эпицентр масштабного скандала и окончательно ссорится с мужем. В качестве наказания ей предстоит на пару месяцев залечь на дно, работая корреспондентом местной газеты «Вечерняя Пелена».

Качество: SATRip-AVC
Формат: MKV

Видео: MPEG-4 AVC, ~ 1500 Кбит/с, 720x400, 25 кадр/с
Аудио: AC3, 2 ch, 192 Кбит/с
скриншот   скриншот   скриншот   скриншот  

Общее
Уникальный идентификатор : 239763537862788833307052878244537667630 (0xB460C7184766B605BA3EE66DDD8F902E)
Полное имя : E:\Пелена.(2017).SATRip.(AVC).Files-x\01.Пелена.(2017).SATRip.(AVC).by.Серый1779.Files-x.mkv
Формат : Matroska
Версия формата : Version 2
Размер файла : 592 Мбайт
Продолжительность : 48 м. 50 с.
Общий поток : 1694 Кбит/сек
Дата кодирования : UTC 2018-06-04 20:14:58
Программа кодирования : mkvmerge v7.8.0 ('River Man') 32bit built on Apr 3 2015 12:11:22
Библиотека кодирования : libebml v1.3.1 + libmatroska v1.4.2

Видео
Идентификатор : 1
Формат : AVC
Формат/Информация : Advanced Video Codec
Профиль формата : High@L4.1
Настройки формата : CABAC / 9 Ref Frames
Параметр CABAC формата : Да
Параметр RefFrames формата : 9 кадров
Идентификатор кодека : V_MPEG4/ISO/AVC
Продолжительность : 48 м. 50 с.
Битрейт : 1500 Кбит/сек
Ширина : 720 пикселей
Высота : 400 пикселей
Соотношение сторон : 16:9
Режим частоты кадров : Постоянный
Частота кадров : 25,000 кадров/сек
Цветовое пространство : YUV
Субдискретизация насыщенности : 4:2:0
Битовая глубина : 8 бит
Тип развёртки : Прогрессивная
Бит/(Пиксели*Кадры) : 0.208
Размер потока : 513 Мбайт (87%)
Библиотека кодирования : x264 core 146 r2538 121396c
Настройки программы : cabac=1 / ref=9 / deblock=1:-3:-3 / analyse=0x3:0x133 / me=umh / subme=9 / psy=1 / psy_rd=1.00:0.15 / mixed_ref=1 / me_range=32 / chroma_me=1 / trellis=2 / 8x8dct=1 / cqm=0 / deadzone=21,11 / fast_pskip=0 / chroma_qp_offset=-3 / threads=18 / lookahead_threads=3 / sliced_threads=0 / nr=0 / decimate=1 / interlaced=0 / bluray_compat=0 / constrained_intra=0 / bframes=9 / b_pyramid=2 / b_adapt=2 / b_bias=0 / direct=1 / weightb=1 / open_gop=0 / weightp=2 / keyint=250 / keyint_min=25 / scenecut=40 / intra_refresh=0 / rc=2pass / mbtree=0 / bitrate=1500 / ratetol=1.0 / qcomp=0.60 / qpmin=0 / qpmax=69 / qpstep=4 / cplxblur=20.0 / qblur=0.5 / ip_ratio=1.40 / pb_ratio=1.30 / aq=2:1.00
Default : Да
Forced : Нет
Цветовой диапазон : Limited
Основные цвета : BT.601 PAL
Характеристики трансфера : BT.470 System B, BT.470 System G
Коэффициенты матрицы : BT.470 System B, BT.470 System G

Аудио
Идентификатор : 2
Формат : AC-3
Формат/Информация : Audio Coding 3
Идентификатор кодека : A_AC3
Продолжительность : 48 м. 50 с.
Вид битрейта : Постоянный
Битрейт : 192 Кбит/сек
Каналы : 2 канала
Расположение каналов : Front: L R
Частота : 48,0 КГц
Частота кадров : 31,250 кадров/сек (1536 SPF)
Битовая глубина : 16 бит
Метод сжатия : С потерями
Размер потока : 67,1 Мбайт (11%)
ServiceKind/String : Complete Main
Default : Да
Forced : Нет

pb.wtf



Скачать Пелена через торрент http://i104.fastpic.ru/big/2018/0604/d6/ac7be8e1e9b65a9ead6d1bfa1b1029d6.jpg Скачать фильм Пелена через торрент бесплантно в хорошем качестве Описание: Оксана – журналистка, специализирующаяся на громких коррупционных делах. Кирилл – следователь по особо тяжким преступлениям, ... 9.2 10 5
Торрент: Зарегистрирован [2018-06-18 11:28] · скачан: 201 раз
Статус: √ проверено
Размер: 5.93 GB
Как cкачать? Как скачать Пелена через торрент | qTorrent

28-11-2019 20:33  

Отключить всю рекламу на сайте

    Дорогой пользователь! Огромная просьба, поблагодарите релизера, оцените раздачу и оставьте свои комментарий, если Вы скачали Пелена через торрент бесплатно! Внесите свою лепту в развитие PiratBit!
    Комментировать посты могут только пользователи прошедшие не сложную регистрацию
    Показать сообщения:    

    Пелена через торрент
    Скачать бесплатно Пелена
    Пелена скачать торрент
    Пелена смотреть онлайн
    Cкачать фильм Пелена бесплатно
    Пелена скачать торрент в хорошем качестве
    Пелена смотреть онлайн бесплатно в хорошем качестве


    Вы не можете начинать темы
    Вы не можете отвечать на сообщения
    Вы не можете редактировать свои сообщения
    Вы не можете удалять свои сообщения
    Вы не можете голосовать в опросах
    Вы не можете прикреплять файлы к сообщениям
    Вы можете скачивать файлы