новый адрес
Ссылка на приватное зеркало всего за 1$. Внимание количество ограничено!!!

iTunes

1+1

iTunes

мы

iTunes

1

iTunes

Чернобыль

iTunes

Ральф против интернета

Лицензия

ПШазам

Лицензия

Оно 2

Лицензия

30
pack

Вам бонус

ВАЖНО

!!Акция!!

Alien_RageХит недели

RePack

Resident Evil 21

ИГРА 18+

pack

RePack

jed

!!Акция!!

Alien_Rage

RePack

fifa19

RePack

Assassins Creed: Odyssey

RePack

NEED FOR SPEED™ PAYBACK

3 сезон

9 сезон

Бесстыжие 9 сезон

Все сериалы

все сериалы на PB.wtf

RePack

FAR CRY 5
Ребята, катастрофически не хватает 1900р. для оплаты серверов за Октябрь (всвязи с блокировками трафик упал в 3 раза), 1-2р., выручайте.
  

Истерия / Delirium (Дэннис Илиадис) [2018, Ужасы, триллер, WEB-DLRip-AVC] DUB [iTunes] pb.wtf

Истерия через торрент pb.wtf

Размер: 1.46 GB | Добавлен: 1 год 5 мес. назад | Торрент скачан:389 раз
Скачать  

18-06-2018 16:01 Истерия Скачать торрент  

Истерия / Delirium
Год выпуска: 2018
Страна: США
Жанр: Ужасы, триллер
Продолжительность: 01:36:06
Перевод: Дублированный | iTunes
Субтитры: Английские

Режиссер: Дэннис Илиадис

rating

В ролях:

Тофер Грейс (Tom), Дженезис Родригез (Lynn), Патришия Кларксон (Brody), Каллэн Мулвей (Alex), Робин Томас (Father), Дэйзи МакКрэкин (Mother), Келли Барксдэйл (Teenage girl), Браден Фицджералд (Young Tom), Коуди Салливан (Young Alex), Марти Эли Шварц (Frank)
Описание:

Бывший пациент клиники для душевнобольных возвращается в роскошный особняк, доставшийся ему после смерти родителей. В этом доме прошло все его детство, и с ним связано много ярких воспоминаний. Но со временем в доме начинают происходить странные и пугающие вещи. Или это все — в его голове?

Качество: WEB-DLRip-AVC
Формат: MKV

Видео: 1024x552 (1.85:1), 23,976 fps, x264 ~1 597 kbps avg, 0.118 bit/pixel
Аудио#1: 48 kHz, AC3 Dolby Digital, 3/2 (L,C,R,l,r) + LFE ch, ~384.00 kbps avg | RUS (iTunes)
Аудио#2: 48 kHz, AC3 Dolby Digital, 2 (L,R) ch, ~192.00 kbps avg | ENG
скриншот   скриншот   скриншот   скриншот  

Общее
Уникальный идентификатор : 251240824916643200609201863079935477367 (0xBD03390927CCE6A1832F383579B60677)
Полное имя : E:\OlLanDGroup\Delirium.2018.WEB-DLRip(AVC).OlLanDGroup.mkv
Формат : Matroska
Версия формата : Version 4 / Version 2
Размер файла : 1,46 Гбайт
Продолжительность : 1 ч. 36 м.
Общий поток : 2175 Кбит/сек
Название фильма : Delirium.2018 #TorpedoUK#
Дата кодирования : UTC 2018-06-18 15:24:41
Программа кодирования : mkvmerge v8.3.0 ('Over the Horizon') 64bit
Библиотека кодирования : libebml v1.3.1 + libmatroska v1.4.2

Видео
Идентификатор : 1
Формат : AVC
Формат/Информация : Advanced Video Codec
Профиль формата : High@L4.1
Параметр CABAC формата : Да
Параметр ReFrames формата : 10 кадров
Идентификатор кодека : V_MPEG4/ISO/AVC
Продолжительность : 1 ч. 36 м.
Битрейт : 1597 Кбит/сек
Ширина : 1024 пикселя
Высота : 552 пикселя
Соотношение сторон : 1,85:1
Режим частоты кадров : Постоянный
Частота кадров : 23,976 (24000/1001) кадра/сек
Цветовое пространство : YUV
Субдискретизация насыщенности : 4:2:0
Битовая глубина : 8 бит
Тип развёртки : Прогрессивная
Бит/(Пиксели*Кадры) : 0.118
Размер потока : 1,07 Гбайт (73%)
Библиотека кодирования : x264 core 146 r2538 121396c
Настройки программы : cabac=1 / ref=10 / deblock=1:-3:-3 / analyse=0x3:0x113 / me=umh / subme=11 / psy=1 / psy_rd=0.99:0.04 / mixed_ref=1 / me_range=48 / chroma_me=1 / trellis=2 / 8x8dct=1 / cqm=0 / deadzone=21,11 / fast_pskip=1 / chroma_qp_offset=-3 / threads=6 / lookahead_threads=1 / sliced_threads=0 / nr=0 / decimate=1 / interlaced=0 / bluray_compat=0 / constrained_intra=0 / bframes=10 / b_pyramid=2 / b_adapt=2 / b_bias=0 / direct=3 / weightb=1 / open_gop=0 / weightp=2 / keyint=240 / keyint_min=23 / scenecut=40 / intra_refresh=0 / rc_lookahead=40 / rc=2pass / mbtree=1 / bitrate=1597 / ratetol=1.0 / qcomp=0.60 / qpmin=0 / qpmax=69 / qpstep=4 / cplxblur=20.0 / qblur=0.5 / vbv_maxrate=50000 / vbv_bufsize=62500 / nal_hrd=none / filler=0 / ip_ratio=1.40 / aq=1:1.00
Default : Да
Forced : Нет

Аудио #1
Идентификатор : 2
Формат : AC-3
Формат/Информация : Audio Coding 3
Расширение режима : CM (complete main)
Параметр Endianness формата : Big
Идентификатор кодека : A_AC3
Продолжительность : 1 ч. 36 м.
Вид битрейта : Постоянный
Битрейт : 384 Кбит/сек
Каналы : 6 каналов
Расположение каналов : Front: L C R, Side: L R, LFE
Частота : 48,0 КГц
Частота кадров : 31,250 кадров/сек (1536 spf)
Битовая глубина : 16 бит
Метод сжатия : С потерями
Размер потока : 264 Мбайт (18%)
Язык : Russian
Default : Да
Forced : Нет

Аудио #2
Идентификатор : 3
Формат : AC-3
Формат/Информация : Audio Coding 3
Расширение режима : CM (complete main)
Параметр Endianness формата : Big
Идентификатор кодека : A_AC3
Продолжительность : 1 ч. 36 м.
Вид битрейта : Постоянный
Битрейт : 192 Кбит/сек
Каналы : 2 канала
Расположение каналов : Front: L R
Частота : 48,0 КГц
Частота кадров : 31,250 кадров/сек (1536 spf)
Битовая глубина : 16 бит
Метод сжатия : С потерями
Размер потока : 132 Мбайт (9%)
Заголовок : Original
Язык : English
Default : Нет
Forced : Нет

Текст #1
Идентификатор : 4
Формат : UTF-8
Идентификатор кодека : S_TEXT/UTF8
Идентификатор кодека/Информация : UTF-8 Plain Text
Продолжительность : 1 ч. 29 м.
Битрейт : 39 бит/сек
Count of elements : 878
Размер потока : 25,7 Кбайт (0%)
Заголовок : Full
Язык : English
Default : Нет
Forced : Нет

Текст #2
Идентификатор : 5
Формат : UTF-8
Идентификатор кодека : S_TEXT/UTF8
Идентификатор кодека/Информация : UTF-8 Plain Text
Продолжительность : 1 ч. 29 м.
Битрейт : 44 бит/сек
Count of elements : 1071
Размер потока : 29,3 Кбайт (0%)
Заголовок : SDH
Язык : English
Default : Нет
Forced : Нет

Меню
00:00:00.000 : en:1
00:03:43.000 : en:2
00:13:45.000 : en:3
00:24:11.000 : en:4
00:34:01.000 : en:5
00:43:49.000 : en:6
00:55:05.000 : en:7
01:04:02.000 : en:8
01:13:01.000 : en:9
01:19:19.000 : en:10
01:30:11.000 : en:11

pb.wtf



Скачать Истерия через торрент http://img12.lostpic.net/2018/05/17/a564c8a4ac1915e957957663a1e2dd45.jpg Скачать фильм Истерия через торрент бесплантно в хорошем качестве Описание: Бывший пациент клиники для душевнобольных возвращается в роскошный особняк, доставшийся ему после смерти родителей. В этом доме ... 10 10 7
Торрент: Зарегистрирован [2018-06-18 16:01] · скачан: 389 раз
Статус: √ проверено
Размер: 1.46 GB
Как cкачать? Как скачать Истерия через торрент | qTorrent

% Раздел Тема Автор DL S | L
Фильмы 2018 [DVDrip, WEB-DLRip, HDrip] (DUB, MVO) [ 1.46 GB ] Истерия / Delirium [2018 BDRip] - [] Twi7ter Скачать
1 | 1
Фильмы 2018 [DVDrip, WEB-DLRip, HDrip] (DUB, MVO) [ 1.46 GB ] Истерия / Delirium [2018 BDRip-AVC] DUB [] bober100 Скачать
1 | 0
Фильмы (Blu-ray, BD-Remux, HDDVD) [ 20.87 GB ] Истерия / Delirium [2018 BD Remux 1080p] DUB [] bober100 Скачать
1 | 0
R.G. Resident & PiratVoice - Фильмы, Видео [ 2.05 GB ] Истерия / Delirium [2018 HDRip от R.G. Resident] DUB [] -Lexx- Скачать
1 | 0
Фильмы [HD 720p, 1080p] (Хороший звук DUB, MVO) [ 5.89 GB ] Истерия / Delirium [2018 BDRip 720p] DUB [] bober100 Скачать
1 | 0
Фильмы [HD 720p, 1080p] (Хороший звук DUB, MVO) [ 9.58 GB ] Истерия / Delirium [2018 BDRip 1080p] DUB [] bober100 Скачать
1 | 0
Фильмы 2018 [DVDrip, WEB-DLRip, HDrip] (DUB, MVO) [ 1.46 GB ] Истерия / Delirium [2018 BDRip] DUB [] bober100 Скачать
1 | 0
Отключить всю рекламу на сайте
    Дорогой пользователь! Огромная просьба, поблагодарите релизера, оцените раздачу и оставьте свои комментарий, если Вы скачали Истерия через торрент бесплатно! Внесите свою лепту в развитие PiratBit!
    Комментировать посты могут только пользователи прошедшие не сложную регистрацию
    Показать сообщения:    

    Истерия через торрент
    Скачать бесплатно Истерия
    Истерия скачать торрент
    Истерия смотреть онлайн
    Cкачать фильм Истерия бесплатно
    Истерия скачать торрент в хорошем качестве
    Истерия смотреть онлайн бесплатно в хорошем качестве


    Вы не можете начинать темы
    Вы не можете отвечать на сообщения
    Вы не можете редактировать свои сообщения
    Вы не можете удалять свои сообщения
    Вы не можете голосовать в опросах
    Вы не можете прикреплять файлы к сообщениям
    Вы можете скачивать файлы