Ссылка на приватное зеркало всего за 1$. Внимание количество ограничено!!!

OK

1+1

iTunes

мы

OK

1

WEB-DLRip

Джокер

Пифагор

Ведьмак / The Witcher сериал

Лицензия

ПШазам

ОК

Оно 2

iTunes

30
pack

Вам бонус

ВАЖНО

!!Акция!!

Alien_RageХит недели

RePack

Resident Evil 21

ИГРА 18+

pack

RePack

jed

RePack

fifa19

RePack

Assassins Creed: Odyssey

RePack

NEED FOR SPEED™ PAYBACK

4 сезон

9 сезон

Бесстыжие 9 сезон

Все сериалы

все сериалы на PB.wtf

RePack

FAR CRY 5
  

Голиаф / Goliath / Сезон: 2 / Серии 1-8 из 8 (Лоуренс Триллинг / Lawrence Trilling, Алик Сахаров / Alik Sakharov, Билл Д’Элиа / Bill D'Elia) [2018, США, драма, WEBRip] MVO [BaibaKo] pb.wtf

Голиаф через торрент pb.wtf

Размер: 4.75 GB | Добавлен: 1 год 6 мес. назад | Торрент скачан:30 раз
Скачать  

19-06-2018 00:39 Голиаф Скачать торрент  

Голиаф / Goliath


  • Год выпуска: 2018
  • Страна: США
  • Жанр: драма
  • Продолжительность: ~ 00:55:00 (Серия)
  • Перевод: Профессиональный многоголосый [BaibaKo]
  • Режиссер: Лоуренс Триллинг / Lawrence Trilling, Алик Сахаров / Alik Sakharov, Билл Д’Элиа / Bill D'Elia
  • В ролях:

    Билли Боб Торнтон (Billy McBride), Уильям Хёрт (Donald Cooperman), Мария Белло (Michelle McBride), Оливия Тирлби (Lucy Kittridge), Нина Арианда (Patty Solis-Papagian), Молли Паркер (Callie Senate), Таня Рэймонд (Brittany Gold), Сара Уайнтер (Gina Larson), Бритен Далтон (Jason Larson), Дэймон Гаптон (Leonard Letts), Дуайт Йоакам (Wendell Corey), Диана Хоппер (Denise McBride)


  • Влиятельный и знаменитый в прошлом юрист Билли Макбрайд крепко запил, в итоге потеряв и работу, и карьеру, и жену. Партнёр по юридической фирме выгнал Билли, оставив бывшего друга спиваться. Но однажды в руки Макбрайда попадает дело, в котором оказывается замешана не только его бывшая фирма и бывший партнёр, а сейчас - конкурент, но и мегакорпорация с оборонными контрактами. Так аутсайдеру предстоит бороться с "голиафом".
  • Рейтинг:

    rating
  • Качество: WEBRip
  • Формат: :AVI
  • Видео кодек: XviD
  • Аудио кодек: MP3
  • Видео: 1529 Кбит/сек, 720*400 (16:9), в 23,976 (24000/1001) кадра/сек, MPEG-4 Visual (XviD)
  • Аудио №1: русский 192 Кбит/сек, 48,0 КГц, 2 канала, MPEG Audio (MP3) |[BaibaKo]|
  • Релиз от: GEKADOL

    Внимание! Раздача ведётся путём добавления новых серий; при каждом добавлении создаётся новый торрент. Чтобы начать докачку новой серии, пользователям необходимо сделать следующее:
    (1) остановить скачивание,
    (2) удалить старый торрент у себя из клиента (старые серии удалять не надо),
    (3) скачать новый торрент и запустить его у себя в клиенте вместо старого, при этом указать клиенту путь в старую папку куда и должно происходить скачивание новых серий.
    Ваш клиент при этом должен произвести хеширование (проверку) старой папки (если не производит сам - помогите ему сделать это), и будет докачивать только те серии которых у вас ещё нет. Старые серии при этом не удаляются, а продолжают раздаваться!
    Eсли вы уже удалили старые серии, то предотвратить повторную закачку старых серий можно, отжав галочку в соответствующих местах при запуске нового торрента. По возможности, желательно не удалять старые серии как можно дольше чтобы релизёр не столько продолжал раздавать старые серии, а смог сконцентрироваться на новых.
    Общее
    Полное имя : F:\Голиаф (Goliath) S.2\Goliath.s02e04.WEBRip.XviD.Rus.BaibaKo.avi
    Формат : AVI
    Формат/Информация : Audio Video Interleave
    Размер файла : 708 Мбайт
    Продолжительность : 57 м. 14 с.
    Общий поток : 1731 Кбит/сек

    Видео
    Идентификатор : 0
    Формат : MPEG-4 Visual
    Профиль формата : Advanced Simple@L5
    Настройки формата : BVOP2
    Параметр BVOP формата : 2
    Параметр QPel формата : Нет
    Параметр GMC формата : Без точки перехода
    Параметр матрицы формата : Default (H.263)
    Идентификатор кодека : XVID
    Идентификатор кодека/Подсказка : XviD
    Продолжительность : 57 м. 14 с.
    Битрейт : 1529 Кбит/сек
    Ширина : 720 пикселей
    Высота : 400 пикселей
    Соотношение сторон : 16:9
    Частота кадров : 23,976 (24000/1001) кадра/сек
    Цветовое пространство : YUV
    Субдискретизация насыщенности : 4:2:0
    Битовая глубина : 8 бит
    Тип развёртки : Прогрессивная
    Метод сжатия : С потерями
    Бит/(Пиксели*Кадры) : 0.221
    Размер потока : 626 Мбайт (88%)
    Библиотека кодирования : XviD 67

    Аудио
    Идентификатор : 1
    Формат : MPEG Audio
    Версия формата : Version 1
    Профиль формата : Layer 3
    Настройки формата : Joint stereo / MS Stereo
    Идентификатор кодека : 55
    Идентификатор кодека/Подсказка : MP3
    Продолжительность : 57 м. 14 с.
    Вид битрейта : Постоянный
    Битрейт : 192 Кбит/сек
    Каналы : 2 канала
    Частота : 48,0 КГц
    Метод сжатия : С потерями
    Задержка видео : 11 мс.
    Размер потока : 78,6 Мбайт (11%)
    Выравнивание : Разделение по промежуткам
    Продолжительность промежутка : 42 мс. (1,00 видеокадр)
    Время предзагрузки промежутка : 500 мс.
    Библиотека кодирования : LAME3.100ЄЄЄЄЄЄЄЄЄЄЄ



    Внимание! В сериале используется нецензурная лексика!
    Скриншоты:
    скриншот   скриншот   скриншот   скриншот   скриншот   скриншот   скриншот  
    скриншот  

    Раздача ведётся путём добавления новых серий. Добавлена 8 серия (02.07.2018).Просьба перекачать торрент файл.

    pb.wtf



  • Скачать Голиаф через торрент http://pic1.kartinco.top/images/11/v9qpi.jpg Скачать фильм Голиаф через торрент бесплантно в хорошем качестве qw.png Влиятельный и знаменитый в прошлом юрист Билли Макбрайд крепко запил, в итоге потеряв и работу, и карьеру, и жену. Партнёр по ... 8.7 10 6
    Info! Золотая раздача, скачанное не засчитывается.
    Торрент: Зарегистрирован [2018-07-01 22:48] · скачан: 30 раз
    Статус: √ проверено
    Размер: 4.75 GB
    Как cкачать? Как скачать Голиаф через торрент | qTorrent

    % Раздел Тема Автор DL S | L
    Зарубежные сериалы [ 30 GB ] Голиаф / Goliath / Сезон: 2 / Серии 1-8 из 8 [2018 WEBRip 1080p] 2xMVO [NewStudio BaibaKo] sheker187 Скачать
    1 | 0
    Зарубежные сериалы [ 62.98 GB ] Голиаф / Goliath / Сезон: 2 / Серии 1-8 из 8 [2018 UHD WEBRip 2160p] 2xMVO [NewStudio BaibaKo] sheker187 Скачать
    1 | 0

    28-11-2019 20:33  

    Отключить всю рекламу на сайте


      Дорогой пользователь! Огромная просьба, поблагодарите релизера, оцените раздачу и оставьте свои комментарий, если Вы скачали Голиаф через торрент бесплатно! Внесите свою лепту в развитие PiratBit!
      Комментировать посты могут только пользователи прошедшие не сложную регистрацию
      Показать сообщения:    

      Голиаф через торрент
      Скачать бесплатно Голиаф
      Голиаф скачать торрент
      Голиаф смотреть онлайн
      Cкачать фильм Голиаф бесплатно
      Голиаф скачать торрент в хорошем качестве
      Голиаф смотреть онлайн бесплатно в хорошем качестве


      Вы не можете начинать темы
      Вы не можете отвечать на сообщения
      Вы не можете редактировать свои сообщения
      Вы не можете удалять свои сообщения
      Вы не можете голосовать в опросах
      Вы не можете прикреплять файлы к сообщениям
      Вы можете скачивать файлы