новый адрес
Ссылка на приватное зеркало всего за 1$. Внимание количество ограничено!!!

iTunes

1+1

iTunes

мы

WEB-DL

1

iTunes

Чернобыль

iTunes

Ральф против интернета

Лицензия

ПШазам

Лицензия

Оно 2

Лицензия

30
pack

Вам бонус

ВАЖНО

!!Акция!!

Alien_RageХит недели

RePack

Resident Evil 21

ИГРА 18+

pack

RePack

jed

!!Акция!!

Alien_Rage

RePack

fifa19

RePack

Assassins Creed: Odyssey

RePack

NEED FOR SPEED™ PAYBACK

3 сезон

9 сезон

Бесстыжие 9 сезон

Все сериалы

все сериалы на PB.wtf

RePack

FAR CRY 5
Ребята, катастрофически не хватает 1900р. для оплаты серверов за Октябрь (всвязи с блокировками трафик упал в 3 раза), 1-2р., выручайте.
  

Сердцеед / Le retour du héros (Лоран Тирар) [2018, комедия, история, HDRip-AVC] DUB [iTunes] pb.wtf

Сердцеед через торрент pb.wtf

Раздают: 1 [ 0 KB/s ]
Размер: 2.12 GB | Добавлен: 1 год 5 мес. назад | Торрент скачан:211 раз
Скачать  

19-06-2018 13:57 Сердцеед Скачать торрент  

Сердцеед / Le retour du héros
Год выпуска: 2018
Страна: Франция, Бельгия
Жанр: комедия, история
Продолжительность: 01:30:22
Перевод: Дублированный | iTunes
Субтитры: отсутствуют

Режиссер: Лоран Тирар

rating

В ролях:

Жан Дюжарден, Мелани Лоран, Ноэми Мерлан, Кристоф Монтенез, Эвелин Бюиль, Кристиан Бюжо, Федор Аткин, Фабьен Галула, Лоран Бато, Жан-Мишель Лами

Описание:

Красавец и ловелас капитан Невиль, отправляясь в Австрию с армией Наполеона, клянется своей возлюбленной ежедневно писать. Но писем нет, и сердце трепетной Полин разбито. Ее сестра Элизабет решает писать от имени Невиля. Но, сочиняя невероятные подвиги и в конце концов похоронив с почестями легендарного героя, она и не предполагает, что однажды вполне живой и далеко не идеальный Невиль вновь появится у них на пороге.

Качество: HDRip-AVC
Формат: MKV

Видео: MPEG-4 AVC, 1024x426, 2340 kbps, 23,976 fps
Аудио#1: русский, AC3, 6 ch, 48 kHz, 384 kbps | iTunes
Аудио#2: французский, AC3, 6 ch, 48 kHz, 640 kbps | оригинал
скриншот   скриншот   скриншот   скриншот  

General
Уникальный идентификатор : 182893380852934672353277099733087618940 (0x8997FBDFA840AF78B655CE85F0EF077C)
Полное имя : F:UtorrentLe.Retour.Du.Heros.2018HDRip.mkv
Формат : Matroska
Версия формата : Version 4 / Version 2
Размер файла : 2.12 GiB
Продолжительность : 1 h 30 min
Общий поток : 3 365 kb/s
Дата кодирования : UTC 2018-06-19 11:10:24
Программа кодирования : mkvmerge v9.5.0 ('Quiet Fire') 64bit
Библиотека кодирования : libebml v1.3.4 + libmatroska v1.4.5

Video
Идентификатор : 1
Формат : AVC
Формат/Информация : Advanced Video Codec
Профиль формата : High@L4.1
Настройки формата : CABAC / 10 Ref Frames
Параметр CABAC формата : Yes
Параметр RefFrames формата : 10 frames
Идентификатор кодека : V_MPEG4/ISO/AVC
Продолжительность : 1 h 30 min
Битрейт : 2 340 kb/s
Ширина : 1 024 pixels
Высота : 426 pixels
Соотношение сторон : 2.40:1
Режим частоты кадров : Constant
Частота кадров : 23.976 (24000/1001) FPS
Цветовое пространство : YUV
Субдискретизация насыщенности : 4:2:0
Битовая глубина : 8 bits
Тип развёртки : Progressive
Бит/(Пиксели*Кадры) : 0.224
Размер потока : 1.48 GiB (70%)
Библиотека кодирования : x264 core 155 r2901M 7d0ff22
Настройки программы : cabac=1 / ref=10 / deblock=1:-3:-3 / analyse=0x3:0x133 / me=umh / subme=11 / psy=1 / psy_rd=1.00:0.00 / mixed_ref=1 / me_range=32 / chroma_me=1 / trellis=2 / 8x8dct=1 / cqm=0 / deadzone=21,11 / fast_pskip=0 / chroma_qp_offset=-2 / threads=9 / lookahead_threads=2 / sliced_threads=0 / nr=0 / decimate=0 / interlaced=0 / bluray_compat=0 / constrained_intra=0 / bframes=10 / b_pyramid=2 / b_adapt=2 / b_bias=0 / direct=3 / weightb=1 / open_gop=0 / weightp=2 / keyint=240 / keyint_min=24 / scenecut=40 / intra_refresh=0 / rc_lookahead=120 / rc=2pass / mbtree=0 / bitrate=2340 / ratetol=1.0 / qcomp=0.70 / qpmin=0 / qpmax=69 / qpstep=4 / cplxblur=20.0 / qblur=0.5 / vbv_maxrate=50000 / vbv_bufsize=62500 / nal_hrd=none / filler=0 / ip_ratio=1.40 / pb_ratio=1.30 / aq=1:1.00
Язык : English
Default : Yes
Forced : No

Audio #1
Идентификатор : 2
Формат : AC-3
Формат/Информация : Audio Coding 3
Идентификатор кодека : A_AC3
Продолжительность : 1 h 30 min
Вид битрейта : Constant
Битрейт : 384 kb/s
Каналы : 6 channels
Расположение каналов : Front: L C R, Side: L R, LFE
Частота : 48.0 kHz
Частота кадров : 31.250 FPS (1536 SPF)
Битовая глубина : 16 bits
Метод сжатия : Lossy
Размер потока : 248 MiB (11%)
Язык : Russian
Default : Yes
Forced : No

Audio #2
Идентификатор : 3
Формат : AC-3
Формат/Информация : Audio Coding 3
Идентификатор кодека : A_AC3
Продолжительность : 1 h 30 min
Вид битрейта : Constant
Битрейт : 640 kb/s
Каналы : 6 channels
Расположение каналов : Front: L C R, Side: L R, LFE
Частота : 48.0 kHz
Частота кадров : 31.250 FPS (1536 SPF)
Битовая глубина : 16 bits
Метод сжатия : Lossy
Размер потока : 414 MiB (19%)
Язык : French
Default : No
Forced : No

Menu
00:00:00.000 : :00:00:00.000
00:07:07.052 : :00:07:07.052
00:13:16.754 : :00:13:16.754
00:20:11.919 : :00:20:11.919
00:30:44.801 : :00:30:44.801
00:38:53.248 : :00:38:53.248
00:45:35.942 : :00:45:35.942
00:51:48.439 : :00:51:48.439
00:58:30.549 : :00:58:30.549
01:07:29.796 : :01:07:29.796
01:17:00.574 : :01:17:00.574
01:26:04.034 : :01:26:04.034

pb.wtf



Скачать Сердцеед через торрент http://i105.fastpic.ru/big/2018/0618/49/313f6a8bcc487dbaa3061bec0ec52549.jpg Скачать фильм Сердцеед через торрент бесплантно в хорошем качестве Описание: Красавец и ловелас капитан Невиль, отправляясь в Австрию с армией Наполеона, клянется своей возлюбленной ежедневно писать. Но ... 10 10 5
Info! Золотая раздача, скачанное не засчитывается.
Торрент: Зарегистрирован [2018-06-19 13:57] · скачан: 211 раз
Статус: √ проверено
Размер: 2.12 GB
Как cкачать? Как скачать Сердцеед через торрент | qTorrent

% Раздел Тема Автор DL S | L
Фильмы [HD 720p, 1080p] (Хороший звук DUB, MVO) [ 10.66 GB ] Сердцеед / Le retour du héros [2018 история BDRip 1080p] bober100 Скачать
1 | 0
Фильмы (Blu-ray, BD-Remux, HDDVD) [ 25.37 GB ] Сердцеед / Le retour du héros [2018 история BD Remux 1080p] bober100 Скачать
1 | 0

28-11-2019 20:33  

Отключить всю рекламу на сайте

    Дорогой пользователь! Огромная просьба, поблагодарите релизера, оцените раздачу и оставьте свои комментарий, если Вы скачали Сердцеед через торрент бесплатно! Внесите свою лепту в развитие PiratBit!
    Комментировать посты могут только пользователи прошедшие не сложную регистрацию
    Показать сообщения:    

    Сердцеед через торрент
    Скачать бесплатно Сердцеед
    Сердцеед скачать торрент
    Сердцеед смотреть онлайн
    Cкачать фильм Сердцеед бесплатно
    Сердцеед скачать торрент в хорошем качестве
    Сердцеед смотреть онлайн бесплатно в хорошем качестве


    Вы не можете начинать темы
    Вы не можете отвечать на сообщения
    Вы не можете редактировать свои сообщения
    Вы не можете удалять свои сообщения
    Вы не можете голосовать в опросах
    Вы не можете прикреплять файлы к сообщениям
    Вы можете скачивать файлы