Всегда рабочее зеркало без VPN и Proxy просто перед .vidak.icu напиши любое слово или цифру, Пример http://1eaa.vidak.icu

MVO

2 сезон

2 сезон

1

1 сезон

iTunes

2 сезон

13

1 сезон

Распродажа

pack

Рекомендуем

Пиратка

30

ВАЖНО

RePack

MK11

RePack

jed

RePack

fifa19

RePack

RDR2

RePack

NEED FOR SPEED™ PAYBACK

Кинопоиск HD

6 сезон

 Острые козырьки 6 сезон

Все сериалы

все сериалы на PB.wtf

RePack

FAR CRY 5

Anonymous, нам критически не хватает 5601 руб. на оплату серверов и переферии за Апрель, помоги нам пожалуйста, вся надежда только на тебя. В благодарность мы отключим тебе всю рекламу на сайте!

×
  
Magnet ссылка

Кремлёвское письмо / The Kremlin Letter (Джон Хьюстон) [1970, триллер, драма, криминал, BDRip 1080p b y msltel] MVO pb.wtf

Кремлёвское письмо через торрент pb.wtf

Размер: 12.09 GB | Добавлен: 3 года 10 мес. назад | Торрент скачан:7 раз
Смотреть онлайн Кремлёвское письмо | Скачать    Ребята, помогите собрать деньги на оплату серверов!!!

19-06-2018 15:31 Кремлёвское письмо Скачать торрент  

Название: Кремлёвское письмо
Оригинальное название: The Kremlin Letter
Год выпуска: 1970
Страна: США
Жанр: триллер, драма, криминал
Продолжительность: 02:00:29
Перевод: профессиональный многоголосый

Режиссер: Джон Хьюстон
В ролях: Биби Андерссон, Ричард Бун, Найджел Грин, Дин Джаггер, Лиля Кедрова, Майкл МакЛиаммур, Патрик О’Нил, Барбара Паркинс, Джордж Сандерс, Раф Валлоне, Макс фон Сюдов, Орсон Уэллс, Шандор Элеш, Ниалл МакГиннис, Энтони Чинн, Джон Хьюстон, Вонетта МакГи, Марк Лоуренс (I), Сирил Шэпс, Кристофер Сэндфорд, Хана Мария Правда, Джордж Правда, Людмила Дударова, Дмитрий Тамаров, Пер-Улоф Сирен

О фильме: Секретная организация принимает на службу молодого офицера разведки с фотографической памятью, который должен отправиться Россию. Он должен восстановить письмо, написанное ЦРУ, с обещанием американской помощи России при условии, если Китай получает атомную бомбу...



Качество: BDRip 1080p
Формат: MKV
Видео: MPEG-4 AVC, 12.7 Mбит/с, 1920x808, 23.976 Кадр/с
Аудио 1: русский, AC3, 192 kbps, 2 ch, 48 kHz [закадровый многоголосый]
Аудио 2: английский, DTS, 1509 kbps, 2 ch, 48 kHz [оригинал]
Главы/чаптеры
Общее
Уникальный идентификатор : 249884119629271468461251127346601747792 (0xBBFDEE4CFA46D1EF91A3906C62296550)
Полное имя : D:\Video\Кремлёвское письмо.1970.BDRip.1080p by msltel.mkv
Формат : Matroska
Версия формата : Version 4 / Version 2
Размер файла : 12,1 Гбайт
Продолжительность : 2 ч. 0 м.
Общий поток : 14,4 Мбит/сек
Название фильма : Rip by msltel
Дата кодирования : UTC 2018-06-19 13:55:51
Программа кодирования : mkvmerge v8.2.0 ('World of Adventure') 64bit
Библиотека кодирования : libebml v1.3.1 + libmatroska v1.4.2

Видео
Идентификатор : 1
Формат : AVC
Формат/Информация : Advanced Video Codec
Профиль формата : High@L4.1
Настройки формата : CABAC / 4 Ref Frames
Параметр CABAC формата : Да
Параметр RefFrames формата : 4 кадра
Идентификатор кодека : V_MPEG4/ISO/AVC
Продолжительность : 2 ч. 0 м.
Битрейт : 12,7 Мбит/сек
Ширина : 1920 пикселей
Высота : 808 пикселей
Соотношение сторон : 2,40:1
Режим частоты кадров : Постоянный
Частота кадров : 23,976 (24000/1001) кадра/сек
Цветовое пространство : YUV
Субдискретизация насыщенности : 4:2:0
Битовая глубина : 8 бит
Тип развёртки : Прогрессивная
Бит/(Пиксели*Кадры) : 0.340
Размер потока : 10,7 Гбайт (88%)
Библиотека кодирования : x264 core 146 r2538 121396c
Настройки программы : cabac=1 / ref=4 / deblock=1:-3:-2 / analyse=0x3:0x113 / me=umh / subme=11 / psy=1 / psy_rd=1.00:0.15 / mixed_ref=1 / me_range=32 / chroma_me=1 / trellis=2 / 8x8dct=1 / cqm=0 / deadzone=21,11 / fast_pskip=0 / chroma_qp_offset=-3 / threads=6 / lookahead_threads=1 / sliced_threads=0 / nr=0 / decimate=1 / interlaced=0 / bluray_compat=0 / constrained_intra=0 / bframes=12 / b_pyramid=2 / b_adapt=2 / b_bias=0 / direct=1 / weightb=1 / open_gop=0 / weightp=2 / keyint=230 / keyint_min=23 / scenecut=40 / intra_refresh=0 / rc_lookahead=40 / rc=crf / mbtree=0 / crf=19.3 / qcomp=0.60 / qpmin=0 / qpmax=69 / qpstep=4 / vbv_maxrate=62500 / vbv_bufsize=78125 / crf_max=0.0 / nal_hrd=none / filler=0 / ip_ratio=1.40 / pb_ratio=1.30 / aq=1:1.00
Язык : English
Default : Да
Forced : Нет

Аудио #1
Идентификатор : 2
Формат : AC-3
Формат/Информация : Audio Coding 3
Идентификатор кодека : A_AC3
Продолжительность : 2 ч. 0 м.
Вид битрейта : Постоянный
Битрейт : 192 Кбит/сек
Каналы : 2 канала
Расположение каналов : Front: L R
Частота : 48,0 КГц
Частота кадров : 31,250 кадров/сек (1536 SPF)
Битовая глубина : 16 бит
Метод сжатия : С потерями
Размер потока : 165 Мбайт (1%)
Заголовок : MVO
Язык : Russian
ServiceKind/String : Complete Main
Default : Да
Forced : Нет

Аудио #2
Идентификатор : 3
Формат : DTS
Формат/Информация : Digital Theater Systems
Идентификатор кодека : A_DTS
Продолжительность : 2 ч. 0 м.
Вид битрейта : Постоянный
Битрейт : 1509 Кбит/сек
Каналы : 2 канала
Расположение каналов : Front: L R
Частота : 48,0 КГц
Частота кадров : 93,750 кадра/сек (512 SPF)
Битовая глубина : 16 бит
Метод сжатия : С потерями
Размер потока : 1,27 Гбайт (11%)
Заголовок : original
Язык : English
Default : Нет
Forced : Нет

Меню
00:00:00.000 : en:Chapter 1
00:10:01.183 : en:Chapter 2
00:20:01.783 : en:Chapter 3
00:30:02.383 : en:Chapter 4
00:40:02.983 : en:Chapter 5
00:50:03.583 : en:Chapter 6
01:00:04.183 : en:Chapter 7
01:10:04.783 : en:Chapter 8
01:20:05.383 : en:Chapter 9
01:30:05.983 : en:Chapter 10
01:40:06.583 : en:Chapter 11
01:50:07.183 : en:Chapter 12
pb.wtf



Скачать Кремлёвское письмо через торрент https://a.radikal.ru/a23/1806/d2/fa9f3df862d6.jpg Скачать, смотреть онлайн Кремлёвское письмо бесплантно в хорошем качестве О фильме: Секретная организация принимает на службу молодого офицера разведки с фотографической памятью, который должен отправиться Россию. ... 5 10 1
Info! Золотая раздача, скачанное не засчитывается.
Торрент: Зарегистрирован [2018-06-19 15:31] · скачан: 7 раз
Статус: √ проверено
Размер: 12.09 GB
Как cкачать? Как скачать Кремлёвское письмо через торрент | UTorrent

% Раздел Тема Автор DL S | L
Фильмы [HD 720p, 1080p] (Хороший звук DUB, MVO) [ 4.06 GB ] Кремлёвское письмо / The Kremlin Letter [1970 BDRip 720p b y msltel] MVO msltel Скачать
1 | 0

28-11-2019 20:33  

Отключить всю рекламу на сайте

    Дорогой пользователь! Огромная просьба, поблагодарите релизера, оцените раздачу и оставьте свои комментарий, если Вы скачали Кремлёвское письмо через торрент бесплатно!
    Комментировать посты могут только пользователи прошедшие не сложную регистрацию
    Показать сообщения:    

    Кремлёвское письмо через торрент
    Скачать бесплатно Кремлёвское письмо
    Кремлёвское письмо скачать торрент
    Кремлёвское письмо смотреть онлайн
    Cкачать фильм Кремлёвское письмо бесплатно
    Кремлёвское письмо скачать торрент в хорошем качестве
    Кремлёвское письмо смотреть онлайн бесплатно в хорошем качестве


    Вы не можете начинать темы
    Вы не можете отвечать на сообщения
    Вы не можете редактировать свои сообщения
    Вы не можете удалять свои сообщения
    Вы не можете голосовать в опросах
    Вы не можете прикреплять файлы к сообщениям
    Вы можете скачивать файлы