Ссылка на приватное зеркало нашего сайта всего за 1$. Внимание количество ограничено!!!

2 сезон

iTunes

1 сезон

1

2 сезон

2 сезон

iTunes

1 сезон

RePack

30

Ultimate

ВАЖНО

ИГРА 18+

pack

RePack

MK11
pack

Забери бонус

RePack

jed

!!Акция!!

Alien_Rage

RePack

fifa19

RePack

Assassins Creed: Odyssey

RePack

NEED FOR SPEED™ PAYBACK

4 сезон

9 сезон

Бесстыжие 9 сезон

Все сериалы

все сериалы на PB.wtf

RePack

FAR CRY 5
  

День выборов по-французски / Les Tuche 3 (Оливье Барру) [2018, комедия, BDRip 1080p] DUB [iTunes] pb.wtf

День выборов по-французски через торрент pb.wtf

Размер: 7.22 GB | Добавлен: 2 года 5 мес. назад | Торрент скачан:37 раз
Скачать  

20-06-2018 05:08 День выборов по-французски Скачать торрент  

День выборов по-французски / Les Tuche 3

Год выпуска: 2018
Страна: Франция
Жанр: комедия
Продолжительность: 01:32:34
Перевод: Дублированный | iTunes
Субтитры: отсутствуют

Режиссер: Оливье Барру

rating

В ролях:

Жан-Поль Рув, Изабель Нанти, Клер Надо, Сара Штерн, Пьер Лоттен, Тео Фернандез, Фабьен Ара, Кристиан Де Ла Кортина, Жоффруа де ла Тай, Лео Дюссолье

Описание:

Неунывающая семейка Туше возвращается! Теперь старшие и младшие Туше переезжают… в Елисейский дворец. Все началось с того, что Джефф Туше собирался в очередной раз навестить свою тетушку и как следует отдохнуть, однако новый скоростной поезд почему-то не стал останавливаться на его станции. Возмущению Туше-старшего не было предела, так что он решил попросить во всем разобраться самого главного человека во Франции — президента. Когда все попытки достучаться до руководства страны оказались безуспешными, Туше решил действовать по-другому: выдвинуть собственную кандидатуру на президентские выборы. Дальнейшие события складываются таким образом, что именно Туше получает большинство голосов избирателей. Теперь он — президент, который, правда, не имеет ни малейшего представления о том, как управлять страной.

Качество: BDRip 1080p
Формат: MKV

Видео: MPEG-4 AVC, 1920x800, 8.7 Mbit/s, 23.976 fps
Аудио#1: 48 kHz, AC3, 5.1, 384 Kbps | iTunes | RUS |
Аудио#2: 48 kHz, DTS, 5.1, 1509 Kbps | Оригинал | FRE |
Аудио#3: 48 kHz, AC3, 5.1, 640 Kbps | Оригинал | FRE |
скриншот  скриншот  скриншот  

Общее
Уникальный идентификатор : 244686224228399176948263688284598632713 (0xB814DA457056B66EAFFE320A823F0109)
Полное имя : D:\Les.Tuche.3.2018.BDRip.1080p.mkv
Формат : Matroska
Версия формата : Version 4 / Version 2
Размер файла : 7,22 Гбайт
Продолжительность : 1 ч. 32 м.
Общий поток : 11,1 Мбит/сек
Дата кодирования : UTC 2018-06-19 22:18:57
Программа кодирования : mkvmerge v7.3.0 ('Nouages') 64bit built on Oct 22 2014 18:53:34
Библиотека кодирования : libebml v1.3.0 + libmatroska v1.4.1

Видео
Идентификатор : 1
Формат : AVC
Формат/Информация : Advanced Video Codec
Профиль формата : High@L4.1
Параметр CABAC формата : Да
Параметр RefFrames формата : 5 кадров
Идентификатор кодека : V_MPEG4/ISO/AVC
Продолжительность : 1 ч. 32 м.
Битрейт : 8700 Кбит/сек
Ширина : 1920 пикселей
Высота : 800 пикселей
Соотношение сторон : 2,40:1
Режим частоты кадров : Постоянный
Частота кадров : 23,976 (24000/1001) кадра/сек
Цветовое пространство : YUV
Субдискретизация насыщенности : 4:2:0
Битовая глубина : 8 бит
Тип развёртки : Прогрессивная
Бит/(Пиксели*Кадры) : 0.234
Размер потока : 5,44 Гбайт (75%)
Библиотека кодирования : x264 core 155 r2901 7d0ff22
Настройки программы : cabac=1 / ref=5 / deblock=1:0:0 / analyse=0x3:0x113 / me=umh / subme=8 / psy=1 / psy_rd=1.00:0.00 / mixed_ref=1 / me_range=16 / chroma_me=1 / trellis=1 / 8x8dct=1 / cqm=0 / deadzone=21,11 / fast_pskip=1 / chroma_qp_offset=-2 / threads=12 / lookahead_threads=2 / sliced_threads=0 / nr=0 / decimate=1 / interlaced=0 / bluray_compat=0 / constrained_intra=0 / bframes=3 / b_pyramid=2 / b_adapt=2 / b_bias=0 / direct=3 / weightb=1 / open_gop=0 / weightp=2 / keyint=250 / keyint_min=23 / scenecut=40 / intra_refresh=0 / rc_lookahead=50 / rc=2pass / mbtree=1 / bitrate=8609 / ratetol=1.0 / qcomp=0.60 / qpmin=0 / qpmax=69 / qpstep=4 / cplxblur=20.0 / qblur=0.5 / ip_ratio=1.40 / aq=1:1.00
Язык : French
Default : Да
Forced : Нет

Аудио #1
Идентификатор : 2
Формат : AC-3
Формат/Информация : Audio Coding 3
Расширение режима : CM (complete main)
Параметр Endianness формата : Big
Идентификатор кодека : A_AC3
Продолжительность : 1 ч. 32 м.
Вид битрейта : Постоянный
Битрейт : 384 Кбит/сек
Каналы : 6 каналов
Расположение каналов : Front: L C R, Side: L R, LFE
Частота : 48,0 КГц
Частота кадров : 31,250 кадров/сек (1536 spf)
Метод сжатия : С потерями
Размер потока : 255 Мбайт (3%)
Язык : Russian
Default : Да
Forced : Да

Аудио #2
Идентификатор : 3
Формат : DTS
Формат/Информация : Digital Theater Systems
Режим : 16
Параметр Endianness формата : Big
Идентификатор кодека : A_DTS
Продолжительность : 1 ч. 32 м.
Вид битрейта : Постоянный
Битрейт : 1509 Кбит/сек
Каналы : 6 каналов
Расположение каналов : Front: L C R, Side: L R, LFE
Частота : 48,0 КГц
Частота кадров : 93,750 кадра/сек (512 spf)
Битовая глубина : 24 бит
Метод сжатия : С потерями
Размер потока : 1001 Мбайт (14%)
Язык : French
Default : Нет
Forced : Нет

Аудио #3
Идентификатор : 4
Формат : AC-3
Формат/Информация : Audio Coding 3
Расширение режима : CM (complete main)
Параметр Endianness формата : Big
Идентификатор кодека : A_AC3
Продолжительность : 1 ч. 32 м.
Вид битрейта : Постоянный
Битрейт : 640 Кбит/сек
Каналы : 6 каналов
Расположение каналов : Front: L C R, Side: L R, LFE
Частота : 48,0 КГц
Частота кадров : 31,250 кадров/сек (1536 spf)
Метод сжатия : С потерями
Размер потока : 425 Мбайт (6%)
Язык : French
Default : Нет
Forced : Нет

Меню
00:00:00.000 : en:00:00:00.000
00:07:33.244 : en:00:07:33.244
00:15:14.831 : en:00:15:14.831
00:24:13.369 : en:00:24:13.369
00:33:33.261 : en:00:33:33.261
00:42:36.387 : en:00:42:36.387
00:49:49.987 : en:00:49:49.987
00:57:47.589 : en:00:57:47.589
01:04:32.494 : en:01:04:32.494
01:13:25.735 : en:01:13:25.735
01:21:39.228 : en:01:21:39.228
01:28:24.132 : en:01:28:24.132

pb.wtf



Скачать День выборов по-французски через торрент http://img12.lostpic.net/2018/06/20/37ff12ba4bfbcdd2fd8358deff645a61.jpg Скачать фильм День выборов по-французски через торрент бесплантно в хорошем качестве Описание: Неунывающая семейка Туше возвращается! Теперь старшие и младшие Туше переезжают… в Елисейский дворец. Все началось с того, что ... 10 10 3
Торрент: Зарегистрирован [2018-06-20 05:08] · скачан: 37 раз
Статус: T временная
Размер: 7.22 GB
Как cкачать? Как скачать День выборов по-французски через торрент | qTorrent

% Раздел Тема Автор DL S | L
Фильмы 2018 [DVDrip, WEB-DLRip, HDrip] (DUB, MVO) [ 1.42 GB ] День выборов по-французски / Les Tuche 3 [2018 BDRip] - Twi7ter Скачать
1 | 0
T Фильмы [HD 720p, 1080p] (Хороший звук DUB, MVO) [ 4.61 GB ] День выборов по-французски / Les Tuche 3 [2018 BDRip 720p] bober100 Скачать
1 | 0
Фильмы 2018 [DVDrip, WEB-DLRip, HDrip] (DUB, MVO) [ 1.37 GB ] День выборов по-французски / Les Tuche 3 [2018 HDRip] bober100 Скачать
1 | 0
Фильмы (Blu-ray, BD-Remux, HDDVD) [ 25.95 GB ] День выборов по-французски / Les Tuche 3 [2018 BD Remux 1080p] bober100 Скачать
1 | 0

28-11-2019 20:33  

Отключить всю рекламу на сайте

    Дорогой пользователь! Огромная просьба, поблагодарите релизера, оцените раздачу и оставьте свои комментарий, если Вы скачали День выборов по-французски через торрент бесплатно! Внесите свою лепту в развитие PiratBit!
    Комментировать посты могут только пользователи прошедшие не сложную регистрацию
    Показать сообщения:    

    День выборов по-французски через торрент
    Скачать бесплатно День выборов по-французски
    День выборов по-французски скачать торрент
    День выборов по-французски смотреть онлайн
    Cкачать фильм День выборов по-французски бесплатно
    День выборов по-французски скачать торрент в хорошем качестве
    День выборов по-французски смотреть онлайн бесплатно в хорошем качестве


    Вы не можете начинать темы
    Вы не можете отвечать на сообщения
    Вы не можете редактировать свои сообщения
    Вы не можете удалять свои сообщения
    Вы не можете голосовать в опросах
    Вы не можете прикреплять файлы к сообщениям
    Вы можете скачивать файлы