Всегда рабочее зеркало без VPN и Proxy просто перед .vidak.icu напиши любое слово или цифру, Пример http://478t.vidak.icu

Лицензия

MVO

1 сезон

1

1 сезон

iTunes

1 сезон

13

1 сезон

Deluxe

pack

Рекомендуем

Repack

30

ВАЖНО

RePack

MK11

RePack

jed

RePack

fifa19

RePack

RDR2

RePack

NEED FOR SPEED™ PAYBACK

Кинопоиск HD

6 сезон

 Острые козырьки 6 сезон

Все сериалы

все сериалы на PB.wtf

RePack

FAR CRY 5
  
Magnet ссылка

Бэтмен: Начало / Batman Begins (Кристофер Нолан) [2005, Фэнтези, боевик, драма, UHD BDRip 2160p] DUB + MVO + 2xDVO + 2xAVO pb.wtf

Бэтмен: Начало через торрент pb.wtf

Размер: 30.02 GB | Добавлен: 4 года 1 мес. назад | Торрент скачан:54 раза
Смотреть онлайн Бэтмен: Начало | Скачать    Ребята, помогите собрать деньги на оплату серверов!!!

20-06-2018 07:53 Бэтмен: Начало Скачать торрент  

Бэтмен: Начало / Batman Begins«Легенда начинается...»
Год выпуска: 2005
Страна: США, Великобритания
Жанр: Фэнтези, боевик, драма, приключения, комикс
Продолжительность: 02:20:03
Перевод: Дублированный, профессиональный многоголосый, профессиональный двухголосый, авторский
Субтитры: Русские (Full, SDH), английские (полные, SDH)
Режиссер: Кристофер Нолан
В ролях:

Кристиан Бэйл, Кэти Холмс, Майкл Кейн, Киллиан Мёрфи, Том Уилкинсон, Лиам Нисон, Кен Ватанабе, Гари Олдман, Морган Фриман, Рутгер Хауэр, Раде Шербеджия, Марк Бун Джуниор
Описание:
История о происхождении легенды Брюса Уэйна, юного наследника огромного состояния, потерявшего своих родителей. Покинув родной Готэм, он отправляется в путешествие по миру. Многочисленные преграды и лишения закаляют его характер, а мудрый наставник помогает вновь обрести смысл жизни. Легендарный герой, защитник слабых и борец с несправедливостью преображается у тебя на глазах. Вернувшись в Готэм, Бэтмен становится единственной преградой на пути у сил зла, готовых ввергнуть город во мрак беззакония…
Рейтинг:

Качество: UHD BDRip 2160p
Формат: MKV
Видео: HEVC, HDR, 17.7 Мбит/с, 3840x1600, 23.976 Кадр/с
Аудио #1: Русский / 48 kHz, AC3, 3/2 (L,C,R,l,r) + LFE ch, 640 kbps avg | Дублированный, 4К
Аудио #2: Русский / 48 kHz, AC3, 3/2 (L,C,R,l,r) + LFE ch, 384 kbps avg | Многоголосый закадровый, Киномания
Аудио #3: Русский / 48 kHz, AC3, 3/2 (L,C,R,l,r) + LFE ch, 384 kbps avg | Двухголосый закадровый, Tycoon
Аудио #4: Русский / 48 kHz/16-bit, DTS-HD MA 5.1, 2098 kbps avg | Двухголосый закадровый, Супербит
Аудио #5: Русский / 48 kHz/16-bit, DTS-HD MA 5.1, 2096 kbps avg | Одноголосый закадровый, А. Гаврилов
Аудио #6: Русский / 48 kHz/16-bit, DTS-HD MA 5.1, 2098 kbps avg | Одноголосый закадровый, В. Королев
Аудио #7: Украинский / 48 kHz, AC3, 3/2 (L,C,R,l,r) + LFE ch, 384 kbps avg | Многоголосый закадровый, ICTV
Аудио #8: Украинский / 48 kHz, AC3, 3/2 (L,C,R,l,r) + LFE ch, 448 kbps avg | Многоголосый закадровый, Так Треба Продакшн
Аудио #9: Английский / 48 kHz/24-bit, DTS-HD MA 5.1, 4305 kbps avg Original

Навигация по главам: Есть
Оскар, 2006 год
Номинации (1):
Лучшая работа оператора

Премия канала «MTV», 2006 год
Победитель (1):
Лучший герой (Кристиан Бэйл)

Номинации (2):
Лучший фильм
Лучший злодей (Киллиан Мёрфи)

Золотая малина, 2006 год
Номинации (1):
Худшая женская роль второго плана (Кэти Холмс)

Британская академия, 2006 год
Номинации (3):
Лучший звук
Лучшие визуальные эффекты
Лучшая работа художника-постановщика

Сатурн, 2006 год
Победитель (3):
Лучший фэнтези-фильм
Лучший актер (Кристиан Бэйл)
Лучший сценарий

Номинации (6):
Лучший режиссер (Кристофер Нолан)
Лучший актер второго плана (Лиам Нисон)
Лучшая актриса второго плана (Кэти Холмс)
Лучшие костюмы
Лучшие спецэффекты
Лучшая музыка
Саундтрек фильма содержит несколько пасхальных яиц от создателей — все треки именуются различными латинскими названиями видов летучих мышей, а первые буквы названий треков с 4 по 9 составляют слово «BATMAN».
Роль Джеймса Гордона с равным успехом могли сыграть Курт Рассел и Деннис Куэйд.
В 2002 году всерьез рассматривалась кандидатура самого Клинта Иствуда, а чуть позже появилась идея создания картины «Бэтмен против Супермена» (2016), в которой вакансия режиссера на тот момент отдавалась Вольфгангу Петерсену. Петерсен предпочел снимать исторический эпос «Троя» (2004). И все-таки в 2003 году вакансия была занята Кристофером Ноланом.
До того момента, как на роль «человека-летучей мыши» был избран Кристиан Бэйл эту вакансию прочили многим известным актерам. Среди кандидатов были следующие имена: Гай Пирс, Эштон Кутчер, Дэвид Бореаназ, Джон Кьюсак, Дэвид Духовны и многие другие.
Как и в случае с актерами, место на режиссерском мостике также могли занять многие достойные фигуры. Несмотря на провал четвертого фильма сериала, это место был не прочь занять Джоэл Шумахер. Впрочем, после некоторых раздумий известный режиссер решил больше не рисковать своей репутацией.
Продюсеры приглашали Дэвида Финчера, однако тот сразу же ответил отказом, мотивируя его тем, что на эту тему уже сняли все что можно, и ему просто неинтересно работать со второсортным материалом.
Были попытки привлечь Даррена Аронофски к работе над картиной, основанной на комиксе под названием «Бэтмен: Год первый». Решение продюсеров Warner Bros. не вкладывать денежные средства в проект, так и не было мотивировано, однако существует версия, что киномужам, попросту говоря, не понравился сценарий. В нем Альфред фигурировал как чернокожий механик по кличке «Большой Эл», Бэтмобиль быль стилизован под Линкольн, а сам Брюс Уэйн был и вовсе бездомным.
Принять участие в кастинге на роль Бэтмена были приглашены всего 8 актеров: Кристиан Бэйл, Джошуа Джексон, Эйон Бэйли, Хью Дэнси, Билли Крудап, Киллиан Мёрфи, Генри Кавилл и Джейк Джилленхол. Роль досталась Бейлу, однако Крису Нолану так понравилась игра Киллиана Мёрфи, что он позвал последнего сыграть роль Джонатана Крейна, также известного под псевдонимом Пугало. Кстати, на эту роль отчаянно претендовал Кристофер Экклстон.
На роль главного злодея по имени Рас Аль Гул пробовался Вигго Мортенсен.
Что касается названия картины, то с ним тоже произошли невероятные пертурбации. Сначала это был просто «Бэтмен 5», чуть позднее «Бэтмен: Устрашение», далее «Бэтмен: Игра на запугивание», и наконец, получил-таки свое официальное название — «Бэтмен: Начало».
На роль Альфреда Крис Нолан пытался позвать самого Энтони Хопкинса, но получил отказ.
Люсиуса Фокса мог сыграть Лоуренс Фишбёрн.
Началу съемок пытались попрепятствовать резвившиеся голуби, так некстати расшумевшиеся над крышей съемочного павильона в Лондоне.
Съемки кинокартины начались 22 мая 2004 года в Сенате (здании, принадлежащем Лондонскому Университету). Передняя часть сооружения была стилизована под здание городского суда города Готэма.
Обширная часть декораций, олицетворяющих собой антураж города Готэма, была возведена в одном из заброшенных ангаров.
На съемочной площадке к Кристиану Бэйлу были прикреплены два человека, помогавших надевать ему громоздкий костюм Бэтмена.
Сценарист Дэвид С. Гойер одновременно с работой над сюжетом Бэтмена работал и над третьей частью Блэйда. Кстати, сам Дэвид очень хотел, чтобы Бэтменом стал Джейк Джилленхол, однако уже в ходе работы над картиной признал, что выбор Кристиана Бэйла был также весьма удачен.
На сей раз транспорт главного героя — Бэтмобиль — не был основан на существующих моделях автомобилей. Он создавался практически с нуля. По словам создателей, данный шедевр инженерной мысли способен развить скорость до 90 км/ч всего за 6 секунд.
Во время урбанистических съемок на улицах Чикаго, одна из машин влетела в Бэтмобиль. Водитель был в стельку пьян, и смог лишь развести руками: «Мне показалось, что Черный Рыцарь спустился с небес на своем транспортном средстве, а может это и, вовсе, были инопланетяне».
Дорожная полиция Чикаго в дни съемок испытала немало беспокойных минут, т. к. автомобиль привлекал внимание многочисленных зевак, в результате чего автомобильные пробки возникали всюду, где появлялась съемочная бригада.
Во время съемок на двери трейлера, в котором обитал Кристиан Бэйл, не было имени и фамилии актера, зато на двери красовалась вывеска «Брюс Уэйн».
Смерть родителей Брюса Уэйна показана именно так, как и в оригинальном комиксе. В 1989 году сценаристам пришлось выдумать смерть Томаса и Марты Уэйн от руки главного антагониста (Джокера) для того, чтобы накалить отношения между главными персонажами. В этой же картине семейная чета Уэйнов падет от действий Джо Чилла (Ричард Брэйк).
Кэти Холмс в борьбе за роль Рейчел Дэвис сумела опередить таких маститых конкуренток как Натали Портман и Сара Мишель Геллар.
В роли офицера полиции Готэм-Сити снялся питчер бейсбольной команды NY Mets Дуайт Гуден.
Впервые в истории кинематографа, затраты на проведение рекламной кампании составили около 100 миллионов долларов. Добавив сюда неслабый 130-миллионный бюджет, мы получим едва ли не самый дорогой фильм современности.
Пятой частью приключений Брюса Уэйна могли заняться Лана и Энди Вачовски, но предпочли работу над сиквелами к «Матрице».
Кристиан Бэйл первый актер неамериканского происхождения (по национальности — валлиец), исполнивший главного героя в экранизации саги про Бэтмена.
Бэтмен впервые появился в 27-м выпуске «Detective Comics» в мае 1939 года.
Фальшивое название фильма на стадии съёмок — The Intimidation Game.
На роль Кармайна Фальконе рассматривались Боб Хоскинс и Джеймс Гандольфини.
Джонатан Крейн под влиянием своего собственного галлюциногена страха видит Бэтмена, как летучую мышь, которая похожа на Мэн-Бэта.
За 10 лет до выхода этого фильма Кристиан Бэйл пробовался на роль Робина в фильме «Бэтмен навсегда» (1995).

Внимание! Дальнейший список фактов о фильме содержит спойлеры. Будьте осторожны.

В ранних вариантах сценарий Рейчел должна была быть дальной родственницей семьи Грейсон (Дик Грейсон — первый Робин). Но Нолан удалил этот сценарный ход, чтобы поклонники не ожидали появления Робина в следующих фильмах.
Complete name : F:\batman.begins.2005.2160p.uhd.bluray.x265-SpaceHD13.mkv
Format : Matroska
Format version : Version 4 / Version 2
File size : 30.0 GiB
Duration : 2 h 20 min
Overall bit rate : 30.7 Mb/s
Movie name : batman.begins.2005.2160p.uhd.bluray.x265-SpaceHD13
Encoded date : UTC 2018-06-19 14:38:34
Writing application : mkvmerge v22.0.0 ('At The End Of The World') 64-bit
Writing library : libebml v1.3.5 + libmatroska v1.4.8

Video
ID : 1
Format : HEVC
Format/Info : High Efficiency Video Coding
Commercial name : HDR10
Format profile : Main [email protected]@High
Codec ID : V_MPEGH/ISO/HEVC
Duration : 2 h 20 min
Bit rate : 17.7 Mb/s
Width : 3 840 pixels
Height : 1 600 pixels
Display aspect ratio : 2.40:1
Frame rate mode : Constant
Frame rate : 23.976 (24000/1001) FPS
Color space : YUV
Chroma subsampling : 4:2:0 (Type 2)
Bit depth : 10 bits
Bits/(Pixel*Frame) : 0.120
Stream size : 17.4 GiB (58%)
Title : batman.begins.2005.2160p.uhd.bluray.x265-SpaceHD13
Writing library : x265 2.6+22-ff02513b92c0:[Windows][GCC 6.3.0][64 bit] 10bit
Encoding settings : cpuid=1173503 / frame-threads=4 / numa-pools=16 / wpp / no-pmode / no-pme / no-psnr / no-ssim / log-level=2 / input-csp=1 / input-res=3840x1600 / interlace=0 / total-frames=201492 / level-idc=51 / high-tier=1 / uhd-bd=0 / ref=4 / no-allow-non-conformance / repeat-headers / annexb / aud / hrd / info / hash=0 / no-temporal-layers / no-open-gop / min-keyint=1 / keyint=24 / gop-lookahead=0 / bframes=4 / b-adapt=2 / b-pyramid / bframe-bias=0 / rc-lookahead=25 / lookahead-slices=4 / scenecut=40 / radl=0 / no-intra-refresh / ctu=64 / min-cu-size=8 / rect / no-amp / max-tu-size=32 / tu-inter-depth=1 / tu-intra-depth=1 / limit-tu=0 / rdoq-level=2 / dynamic-rd=0.00 / no-ssim-rd / signhide / no-tskip / nr-intra=0 / nr-inter=0 / no-constrained-intra / no-strong-intra-smoothing / max-merge=3 / limit-refs=3 / limit-modes / me=3 / subme=3 / merange=57 / temporal-mvp / weightp / no-weightb / no-analyze-src-pics / deblock=-3:-3 / no-sao / no-sao-non-deblock / rd=4 / no-early-skip / rskip / no-fast-intra / no-tskip-fast / no-cu-lossless / no-b-intra / no-splitrd-skip / rdpenalty=0 / psy-rd=2.00 / psy-rdoq=1.00 / no-rd-refine / no-lossless / cbqpoffs=0 / crqpoffs=0 / rc=crf / crf=17.0 / qcomp=0.60 / qpstep=4 / stats-write=0 / stats-read=0 / vbv-maxrate=160000 / vbv-bufsize=160000 / vbv-init=0.9 / crf-max=0.0 / crf-min=0.0 / ipratio=1.40 / pbratio=1.30 / aq-mode=1 / aq-strength=1.00 / cutree / zone-count=0 / no-strict-cbr / qg-size=32 / no-rc-grain / qpmax=69 / qpmin=0 / no-const-vbv / sar=1 / overscan=0 / videoformat=5 / range=0 / colorprim=9 / transfer=16 / colormatrix=9 / chromaloc=1 / chromaloc-top=2 / chromaloc-bottom=2 / display-window=0 / master-display=G(13250,34500)B(7500,3000)R(34000,16000)WP(15635,16450)L(40000000,50) / max-cll=992,226 / min-luma=0 / max-luma=1023 / log2-max-poc-lsb=8 / vui-timing-info / vui-hrd-info / slices=1 / no-opt-qp-pps / no-opt-ref-list-length-pps / no-multi-pass-opt-rps / scenecut-bias=0.05 / no-opt-cu-delta-qp / no-aq-motion / hdr / hdr-opt / no-dhdr10-opt / analysis-save=(null) / analysis-load=(null) / analysis-reuse-level=5 / scale-factor=0 / refine-intra=0 / refine-inter=0 / refine-mv=0 / no-limit-sao / ctu-info=0 / no-lowpass-dct / refine-mv-type=0 / copy-pic=1
Default : Yes
Forced : No
Color range : Limited
Color primaries : BT.2020
Transfer characteristics : PQ
Matrix coefficients : BT.2020 non-constant
Mastering display color pri : Display P3
Mastering display luminance : min: 0.0050 cd/m2, max: 4000 cd/m2
Maximum Content Light Level : 992 cd/m2
Maximum Frame-Average Light : 226 cd/m2

Audio #1
ID : 2
Format : AC-3
Format/Info : Audio Coding 3
Codec ID : A_AC3
Duration : 2 h 20 min
Bit rate mode : Constant
Bit rate : 640 kb/s
Channel(s) : 6 channels
Channel positions : Front: L C R, Side: L R, LFE
Sampling rate : 48.0 kHz
Frame rate : 31.250 FPS (1536 SPF)
Bit depth : 16 bits
Compression mode : Lossy
Delay relative to video : 500 ms
Stream size : 641 MiB (2%)
Title : batman.begins.2005.2160p.uhd.bluray.x265-SpaceHD13[DUB-BluRay 4K]
Language : Russian
Service kind : Complete Main
Default : Yes
Forced : Yes

Audio #2
ID : 3
Format : AC-3
Format/Info : Audio Coding 3
Codec ID : A_AC3
Duration : 2 h 20 min
Bit rate mode : Constant
Bit rate : 384 kb/s
Channel(s) : 6 channels
Channel positions : Front: L C R, Side: L R, LFE
Sampling rate : 48.0 kHz
Frame rate : 31.250 FPS (1536 SPF)
Bit depth : 16 bits
Compression mode : Lossy
Delay relative to video : 500 ms
Stream size : 385 MiB (1%)
Title : batman.begins.2005.2160p.uhd.bluray.x265-SpaceHD13[Киномания]
Language : Russian
Service kind : Complete Main
Default : No
Forced : No

Audio #3
ID : 4
Format : AC-3
Format/Info : Audio Coding 3
Codec ID : A_AC3
Duration : 2 h 20 min
Bit rate mode : Constant
Bit rate : 384 kb/s
Channel(s) : 6 channels
Channel positions : Front: L C R, Side: L R, LFE
Sampling rate : 48.0 kHz
Frame rate : 31.250 FPS (1536 SPF)
Bit depth : 16 bits
Compression mode : Lossy
Delay relative to video : 500 ms
Stream size : 385 MiB (1%)
Title : batman.begins.2005.2160p.uhd.bluray.x265-SpaceHD13[Tycoon]
Language : Russian
Service kind : Complete Main
Default : No
Forced : No

Audio #4
ID : 5
Format : AC-3
Format/Info : Audio Coding 3
Codec ID : A_AC3
Duration : 2 h 20 min
Bit rate mode : Constant
Bit rate : 384 kb/s
Channel(s) : 6 channels
Channel positions : Front: L C R, Side: L R, LFE
Sampling rate : 48.0 kHz
Frame rate : 31.250 FPS (1536 SPF)
Bit depth : 16 bits
Compression mode : Lossy
Delay relative to video : 500 ms
Stream size : 385 MiB (1%)
Title : batman.begins.2005.2160p.uhd.bluray.x265-SpaceHD13[ICTV]
Language : Ukrainian
Service kind : Complete Main
Default : No
Forced : No

Audio #5
ID : 6
Format : AC-3
Format/Info : Audio Coding 3
Codec ID : A_AC3
Duration : 2 h 20 min
Bit rate mode : Constant
Bit rate : 448 kb/s
Channel(s) : 6 channels
Channel positions : Front: L C R, Side: L R, LFE
Sampling rate : 48.0 kHz
Frame rate : 31.250 FPS (1536 SPF)
Bit depth : 16 bits
Compression mode : Lossy
Delay relative to video : 500 ms
Stream size : 449 MiB (1%)
Title : batman.begins.2005.2160p.uhd.bluray.x265-SpaceHD13[Так Треба Продакшн]
Language : Ukrainian
Service kind : Complete Main
Default : No
Forced : No

Audio #6
ID : 7
Format : DTS
Format/Info : Digital Theater Systems
Format profile : MA / Core
Codec ID : A_DTS
Duration : 2 h 20 min
Bit rate mode : Variable / Constant
Bit rate : 2 097 kb/s / 1 509 kb/s
Channel(s) : 6 channels
Channel positions : Front: L C R, Side: L R, LFE
Sampling rate : 48.0 kHz
Frame rate : 93.750 FPS (512 SPF)
Bit depth : 16 bits
Compression mode : Lossless / Lossy
Delay relative to video : 500 ms
Stream size : 2.05 GiB (7%)
Title : batman.begins.2005.2160p.uhd.bluray.x265-SpaceHD13[В. Королев]
Language : Russian
Default : No
Forced : No

Audio #7
ID : 8
Format : DTS
Format/Info : Digital Theater Systems
Format profile : MA / Core
Codec ID : A_DTS
Duration : 2 h 20 min
Bit rate mode : Variable / Constant
Bit rate : 2 095 kb/s / 1 509 kb/s
Channel(s) : 6 channels
Channel positions : Front: L C R, Side: L R, LFE
Sampling rate : 48.0 kHz
Frame rate : 93.750 FPS (512 SPF)
Bit depth : 16 bits
Compression mode : Lossless / Lossy
Delay relative to video : 500 ms
Stream size : 2.05 GiB (7%)
Title : batman.begins.2005.2160p.uhd.bluray.x265-SpaceHD13[А. Гаврилов]
Language : Russian
Default : No
Forced : No

Audio #8
ID : 9
Format : DTS
Format/Info : Digital Theater Systems
Format profile : MA / Core
Codec ID : A_DTS
Duration : 2 h 20 min
Bit rate mode : Variable / Constant
Bit rate : 2 097 kb/s / 1 509 kb/s
Channel(s) : 6 channels
Channel positions : Front: L C R, Side: L R, LFE
Sampling rate : 48.0 kHz
Frame rate : 93.750 FPS (512 SPF)
Bit depth : 16 bits
Compression mode : Lossless / Lossy
Delay relative to video : 500 ms
Stream size : 2.05 GiB (7%)
Title : batman.begins.2005.2160p.uhd.bluray.x265-SpaceHD13[Супербит]
Language : Russian
Default : No
Forced : No

Audio #9
ID : 10
Format : DTS
Format/Info : Digital Theater Systems
Format profile : MA / Core
Codec ID : A_DTS
Duration : 2 h 20 min
Bit rate mode : Variable / Constant
Bit rate : 4 382 kb/s / 1 509 kb/s
Channel(s) : 6 channels
Channel positions : Front: L C R, Side: L R, LFE
Sampling rate : 48.0 kHz
Frame rate : 93.750 FPS (512 SPF)
Bit depth : 24 bits
Compression mode : Lossless / Lossy
Delay relative to video : 500 ms
Stream size : 4.29 GiB (14%)
Title : batman.begins.2005.2160p.uhd.bluray.x265-SpaceHD13
Language : English
Default : No
Forced : No

Text #1
ID : 11
Format : UTF-8
Codec ID : S_TEXT/UTF8
Codec ID/Info : UTF-8 Plain Text
Duration : 2 h 11 min
Bit rate : 87 b/s
Count of elements : 1452
Stream size : 84.4 KiB (0%)
Title : Full-voronine
Language : Russian
Default : Yes
Forced : No

Text #2
ID : 12
Format : UTF-8
Codec ID : S_TEXT/UTF8
Codec ID/Info : UTF-8 Plain Text
Duration : 2 h 11 min
Bit rate : 92 b/s
Count of elements : 1525
Stream size : 89.1 KiB (0%)
Title : SDH-voronine
Language : Russian
Default : No
Forced : No

Text #3
ID : 13
Format : UTF-8
Codec ID : S_TEXT/UTF8
Codec ID/Info : UTF-8 Plain Text
Duration : 2 h 9 min
Bit rate : 83 b/s
Count of elements : 1400
Stream size : 79.9 KiB (0%)
Language : Russian
Default : No
Forced : No

Text #4
ID : 14
Format : PGS
Muxing mode : zlib
Codec ID : S_HDMV/PGS
Codec ID/Info : Picture based subtitle format used on BDs/HD-DVDs
Duration : 2 h 19 min
Bit rate : 30.2 kb/s
Count of elements : 2946
Stream size : 30.1 MiB (0%)
Title : English SDH
Language : English
Default : No
Forced : No

Menu
00:00:00.000 : en:00:00:00.000
00:03:39.386 : en:00:03:39.386
00:07:31.326 : en:00:07:31.326
00:11:34.110 : en:00:11:34.110
00:16:15.683 : en:00:16:15.683
00:19:44.433 : en:00:19:44.433
00:24:19.458 : en:00:24:19.458
00:28:24.870 : en:00:28:24.870
00:31:25.383 : en:00:31:25.383
00:35:53.902 : en:00:35:53.902
00:38:24.677 : en:00:38:24.677
00:41:14.681 : en:00:41:14.681
00:43:08.211 : en:00:43:08.211
00:46:57.940 : en:00:46:57.940
00:49:43.939 : en:00:49:43.939
00:53:26.161 : en:00:53:26.161
00:55:55.143 : en:00:55:55.143
00:58:02.354 : en:00:58:02.354
01:03:31.850 : en:01:03:31.850
01:05:53.074 : en:01:05:53.074
01:08:38.948 : en:01:08:38.948
01:11:25.865 : en:01:11:25.865
01:13:19.520 : en:01:13:19.520
01:16:16.238 : en:01:16:16.238
01:19:50.452 : en:01:19:50.452
01:23:54.363 : en:01:23:54.363
01:29:02.754 : en:01:29:02.754
01:32:36.760 : en:01:32:36.760
01:37:49.113 : en:01:37:49.113
01:40:33.778 : en:01:40:33.778
01:45:09.136 : en:01:45:09.136
01:49:32.191 : en:01:49:32.191
01:51:29.349 : en:01:51:29.349
01:54:49.091 : en:01:54:49.091
01:58:11.126 : en:01:58:11.126
02:01:55.099 : en:02:01:55.099
02:05:01.285 : en:02:05:01.285
02:06:06.976 : en:02:06:06.976
02:09:18.584 : en:02:09:18.584
02:10:57.266 : en:02:10:57.266
pb.wtf



Скачать Бэтмен: Начало через торрент https://c.radikal.ru/c14/1805/ba/d0956ded2f86.jpg Скачать, смотреть онлайн Бэтмен: Начало бесплантно в хорошем качестве Описание: История о происхождении легенды Брюса Уэйна, юного наследника огромного состояния, потерявшего своих родителей. Покинув родной ... 10 10 3
Info! Золотая раздача, скачанное не засчитывается.
Торрент: Зарегистрирован [2018-06-20 07:53] · скачан: 54 раз
Статус: √ проверено
Размер: 30.02 GB
Как cкачать? Как скачать Бэтмен: Начало через торрент | UTorrent

% Раздел Тема Автор DL S | L
Ultra HD (UHD: 2K, 4K, 8K) — видео сверхвысокой чёткости [ 71.4 GB ] Бэтмен: Начало / Batman Begins [2005 UHD BDRemux 2160p] DUB+MVO+2xDVO+4xAVO bober100 Скачать
1 | 0
Ultra HD (UHD: 2K, 4K, 8K) — видео сверхвысокой чёткости [ 67.91 GB ] Бэтмен: Начало / Batman Begins [2005 UHD BDRemux 2160p] DUB + MVO + 2xDVO + 3xAVO sheker187 Скачать
1 | 0
Фильмы [HD 720p, 1080p] (Хороший звук DUB, MVO) [ 8.76 GB ] Бэтмен: Начало / Batman Begins [2005 BDRip 720p от _denis_100 / NNNB] DUB MVO 2xDVO 2xAVO _denis_100 Скачать
1 | 0

28-11-2019 20:33  

Отключить вcю реклaмy на сайте

    Дорогой пользователь! Огромная просьба, поблагодарите релизера, оцените раздачу и оставьте свои комментарий, если Вы скачали Бэтмен: Начало через торрент бесплатно!
    Комментировать посты могут только пользователи прошедшие не сложную регистрацию
    Показать сообщения:    

    Бэтмен: Начало через торрент
    Скачать бесплатно Бэтмен: Начало
    Бэтмен: Начало скачать торрент
    Бэтмен: Начало смотреть онлайн
    Cкачать фильм Бэтмен: Начало бесплатно
    Бэтмен: Начало скачать торрент в хорошем качестве
    Бэтмен: Начало смотреть онлайн бесплатно в хорошем качестве


    Вы не можете начинать темы
    Вы не можете отвечать на сообщения
    Вы не можете редактировать свои сообщения
    Вы не можете удалять свои сообщения
    Вы не можете голосовать в опросах
    Вы не можете прикреплять файлы к сообщениям
    Вы можете скачивать файлы