Ссылка на приватное зеркало всего за 1$. Внимание количество ограничено!!!

OK

1+1

iTunes

мы

OK

1

WEB-DLRip

Джокер

Пифагор

Ведьмак / The Witcher сериал

iTunes

ПШазам

ОК

Оно 2

iTunes

30
pack

Вам бонус

ВАЖНО

!!Акция!!

Alien_RageХит недели

RePack

Resident Evil 21

ИГРА 18+

pack

RePack

jed

RePack

fifa19

RePack

Assassins Creed: Odyssey

RePack

NEED FOR SPEED™ PAYBACK

4 сезон

9 сезон

Бесстыжие 9 сезон

Все сериалы

все сериалы на PB.wtf

RePack

FAR CRY 5
  

Познакомься с новыми обстоятельствами / Finding Your Feet (Ричард Лонкрэйн) [2017, драма, мелодрама, комедия, WEB-DL 720p] MVO ["Синема УС"] pb.wtf

Познакомься с новыми обстоятельствами через торрент pb.wtf

Размер: 3.84 GB | Добавлен: 1 год 7 мес. назад | Торрент скачан:20 раз
Скачать  

20-06-2018 16:52 Познакомься с новыми обстоятельствами Скачать торрент  

Познакомься с новыми обстоятельствами / Finding Your Feet
Год выпуска: 2017
Страна: Великобритания
Жанр: драма, мелодрама, комедия
Продолжительность: 01:53:37
Перевод: Любительский (многоголосый) | "Синема УС"
Субтитры: отсутствуют

Режиссер: Ричард Лонкрэйн

rating

В ролях:

Джоанна Ламли, Тимоти Сполл, Селия Имри, Имелда Стонтон, Дэвид Хейман, Фиби Николлс, Джон Сешнс, Джози Лоуренс, Ричард Хоуп, Виктория Уикс

Описание:

Когда ее муж выходит на пенсию, зависимая от чужого мнения и строгая Сандра узнает об измене мужа со своей же подругой. Она уходит от него и переезжает из роскошного дома в квартиру свой сестры-бунтарки, которая живет в небогатом районе Лондона. Там она окунается в совершенно другой мир, полной жизни, искренних друзей и танцев.

Качество: WEB-DL 720p
Формат: MKV

Видео: h2.264, 4 449 kb/s, 1280x532
Аудио#1: Русский, (AC3, 2 ch, 384 Кбит/с)
скриншот  скриншот  скриншот  

Общее
Уникальный идентификатор : 181430546897900560033278528536349571540 (0x887E40975EB43344923CCDC562D0F9D4)
Полное имя : D:\Finding Your Feet.2017.P.WEB-DL.72Op_KOSHARA.mkv
Формат : Matroska
Версия формата : Version 2
Размер файла : 3,84 Гбайт
Продолжительность : 1 ч. 53 м.
Режим общего битрейта : Переменный
Общий поток : 4835 Кбит/сек
Дата кодирования : UTC 2018-06-20 14:18:50
Программа кодирования : mkvmerge v8.3.0 ('Over the Horizon') 64bit
Библиотека кодирования : libebml v1.3.1 + libmatroska v1.4.2

Видео
Идентификатор : 1
Формат : AVC
Формат/Информация : Advanced Video Codec
Профиль формата : High@L4.1
Параметр CABAC формата : Да
Параметр RefFrames формата : 4 кадра
Идентификатор кодека : V_MPEG4/ISO/AVC
Продолжительность : 1 ч. 53 м.
Вид битрейта : Переменный
Битрейт : 4449 Кбит/сек
Максимальный битрейт : 5000 Кбит/сек
Ширина : 1280 пикселей
Высота : 532 пикселя
Соотношение сторон : 2,40:1
Режим частоты кадров : Постоянный
Частота кадров : 23,976 (24000/1001) кадра/сек
Стандарт вещания : Component
Цветовое пространство : YUV
Субдискретизация насыщенности : 4:2:0
Битовая глубина : 8 бит
Тип развёртки : Прогрессивная
Бит/(Пиксели*Кадры) : 0.267
Размер потока : 3,46 Гбайт (90%)
Default : Да
Forced : Нет
Цветовой диапазон : Limited
Основные цвета : BT.709
Характеристики трансфера : BT.709
Коэффициенты матрицы : BT.709

Аудио
Идентификатор : 2
Формат : AC-3
Формат/Информация : Audio Coding 3
Расширение режима : CM (complete main)
Параметр Endianness формата : Big
Идентификатор кодека : A_AC3
Продолжительность : 1 ч. 53 м.
Вид битрейта : Постоянный
Битрейт : 384 Кбит/сек
Каналы : 2 канала
Расположение каналов : Front: L R
Частота : 48,0 КГц
Частота кадров : 31,250 кадров/сек (1536 spf)
Метод сжатия : С потерями
Размер потока : 312 Мбайт (8%)
Default : Да
Forced : Нет

pb.wtf



Скачать Познакомься с новыми обстоятельствами через торрент http://img12.lostpic.net/2018/06/20/2654c443ea870bc5d4bc732c667af877.jpg Скачать фильм Познакомься с новыми обстоятельствами через торрент бесплантно в хорошем качестве Описание: Когда ее муж выходит на пенсию, зависимая от чужого мнения и строгая Сандра узнает об измене мужа со своей же подругой. Она ... 10 10 2
Торрент: Зарегистрирован [2018-06-20 16:52] · скачан: 20 раз
Статус: T временная
Размер: 3.84 GB
Как cкачать? Как скачать Познакомься с новыми обстоятельствами через торрент | qTorrent

% Раздел Тема Автор DL S | L
T Фильмы (мультфильмы) cо спонсором показа (Новинки AVI/MKV) [ 1.37 GB ] Познакомься с новыми обстоятельствами / Finding Your Feet [2017 WEB-DLRip] MVO ["Синема УС"] bober100 Скачать
1 | 0

28-11-2019 20:33  

Отключить всю рекламу на сайте

    Дорогой пользователь! Огромная просьба, поблагодарите релизера, оцените раздачу и оставьте свои комментарий, если Вы скачали Познакомься с новыми обстоятельствами через торрент бесплатно! Внесите свою лепту в развитие PiratBit!
    Комментировать посты могут только пользователи прошедшие не сложную регистрацию
    Показать сообщения:    

    Познакомься с новыми обстоятельствами через торрент
    Скачать бесплатно Познакомься с новыми обстоятельствами
    Познакомься с новыми обстоятельствами скачать торрент
    Познакомься с новыми обстоятельствами смотреть онлайн
    Cкачать фильм Познакомься с новыми обстоятельствами бесплатно
    Познакомься с новыми обстоятельствами скачать торрент в хорошем качестве
    Познакомься с новыми обстоятельствами смотреть онлайн бесплатно в хорошем качестве


    Вы не можете начинать темы
    Вы не можете отвечать на сообщения
    Вы не можете редактировать свои сообщения
    Вы не можете удалять свои сообщения
    Вы не можете голосовать в опросах
    Вы не можете прикреплять файлы к сообщениям
    Вы можете скачивать файлы