Ссылка на приватное зеркало нашего сайта всего за 1$. Внимание количество ограничено!!!

2 сезон

iTunes

1 сезон

1

2 сезон

2 сезон

iTunes

1 сезон

RePack

30

Новинка

ВАЖНО

ИГРА 18+

pack

RePack

MK11
pack

Забери бонус

RePack

jed

!!Акция!!

Alien_Rage

RePack

fifa19

RePack

Assassins Creed: Odyssey

RePack

NEED FOR SPEED™ PAYBACK

4 сезон

9 сезон

Бесстыжие 9 сезон

Все сериалы

все сериалы на PB.wtf

RePack

FAR CRY 5
  

Энджи Трайбека / Angie Tribeca / Сезон: 1 / Серии: 1-10 из 10 (Стив Карелл, Марта Кулидж, Ричи Кин) [2016, комедия, HDTVRip] MVO [IdeaFilm] pb.wtf

Энджи Трайбека через торрент pb.wtf

Размер: 2.42 GB | Добавлен: 2 года 5 мес. назад | Торрент скачан:26 раз
Скачать  

20-06-2018 17:10 Энджи Трайбека Скачать торрент  

Энджи Трайбека / Angie TribecaГод выпуска: 2016
Страна: США
Жанр: комедия
Продолжительность: ~ 00:20:00
Перевод: Любительский (многоголосый) | IdeaFilm
Субтитры: отсутствуют

Режиссер: Стив Карелл, Марта Кулидж, Ричи Кин

rating

В ролях:

Рашида Джонс, Джер Бернс, Деон Коул, Хэйз МакАртур, Эндри Вермелен, Андреас Виганд, Бретт Гилберт, Тони Френч, Гарри Йи, Чиди Аджуфо

Описание:

Комедийная история жизни Энджи Трайбеки, которая вот уже десять лет служит в элитном подразделении полиции Лос-Анджелеса.

Качество: HDTVRip
Формат: AVI

Видео: XviD, ~ 1500 Кбит/с, 720x400
Аудио: AC3, 6 ch, 384 Кбит/с
скриншот   скриншот   скриншот   скриншот   скриншот  

Общее
Полное имя : D:\Angie.Tribeca.HDTVRip\Angie.Tribeca.S01E01.HDTVRip-IDEAFILM.avi
Формат : AVI
Формат/Информация : Audio Video Interleave
Размер файла : 276 Мбайт
Продолжительность : 21 м. 58 с.
Общий поток : 1756 Кбит/сек
Программа кодирования : VirtualDubMod 1.5.10.3 | www.virtualdub-fr.org || (build 2550/release)
Библиотека кодирования : VirtualDubMod build 2550/release

Видео
Идентификатор : 0
Формат : MPEG-4 Visual
Профиль формата : Advanced Simple@L5
Параметр BVOP формата : 1
Параметр QPel формата : Нет
Параметр GMC формата : Без точки перехода
Параметр матрицы формата : Default (MPEG)
Идентификатор кодека : XVID
Идентификатор кодека/Подсказка : XviD
Продолжительность : 21 м. 58 с.
Битрейт : 1363 Кбит/сек
Ширина : 720 пикселей
Высота : 400 пикселей
Соотношение сторон : 16:9
Частота кадров : 23,976 (23976/1000) кадра/сек
Цветовое пространство : YUV
Субдискретизация насыщенности : 4:2:0
Битовая глубина : 8 бит
Тип развёртки : Прогрессивная
Метод сжатия : С потерями
Бит/(Пиксели*Кадры) : 0.197
Размер потока : 214 Мбайт (78%)
Библиотека кодирования : XviD 1.2.1 (UTC 2008-12-04)

Аудио
Идентификатор : 1
Формат : AC-3
Формат/Информация : Audio Coding 3
Расширение режима : CM (complete main)
Параметр Endianness формата : Big
Идентификатор кодека : 2000
Продолжительность : 21 м. 58 с.
Вид битрейта : Постоянный
Битрейт : 384 Кбит/сек
Каналы : 6 каналов
Расположение каналов : Front: L C R, Side: L R, LFE
Частота : 48,0 КГц
Частота кадров : 31,250 кадров/сек (1536 spf)
Метод сжатия : С потерями
Размер потока : 60,3 Мбайт (22%)
Выравнивание : Разделение по промежуткам
Продолжительность промежутка : 42 мс. (1,00 видеокадр)
Время предзагрузки промежутка : 500 мс.

pb.wtf



Скачать Энджи Трайбека через торрент http://i67.fastpic.ru/big/2016/0120/8e/6917144494eea82f8d0a41ac190f2e8e.jpg Скачать фильм Энджи Трайбека через торрент бесплантно в хорошем качестве Описание: Комедийная история жизни Энджи Трайбеки, которая вот уже десять лет служит в элитном подразделении полиции ... 7.7 10 3
Info! Золотая раздача, скачанное не засчитывается.
Торрент: Зарегистрирован [2018-06-20 17:10] · скачан: 26 раз
Статус: √ проверено
Размер: 2.42 GB
Как cкачать? Как скачать Энджи Трайбека через торрент | qTorrent

28-11-2019 20:33  

Отключить всю рекламу на сайте

    Дорогой пользователь! Огромная просьба, поблагодарите релизера, оцените раздачу и оставьте свои комментарий, если Вы скачали Энджи Трайбека через торрент бесплатно! Внесите свою лепту в развитие PiratBit!
    Комментировать посты могут только пользователи прошедшие не сложную регистрацию
    Показать сообщения:    

    Энджи Трайбека через торрент
    Скачать бесплатно Энджи Трайбека
    Энджи Трайбека скачать торрент
    Энджи Трайбека смотреть онлайн
    Cкачать фильм Энджи Трайбека бесплатно
    Энджи Трайбека скачать торрент в хорошем качестве
    Энджи Трайбека смотреть онлайн бесплатно в хорошем качестве


    Вы не можете начинать темы
    Вы не можете отвечать на сообщения
    Вы не можете редактировать свои сообщения
    Вы не можете удалять свои сообщения
    Вы не можете голосовать в опросах
    Вы не можете прикреплять файлы к сообщениям
    Вы можете скачивать файлы