Достать ножи: Стеклянная луковица

MVO

Добыча

Дубляж

Уэнсдэй

1 сезон

Тор

Дубляж

13 клиническая

1 сезон

Жестокая ночь

MVO

Одни из нас

1 сезон

Deluxe

pack

Рекомендуем

30

Пиратка

ВАЖНО

ВАЖНО

Ghostwire

Пиратка

jed

RePack

nioh2

RePack

RDR2

RePack

NEED FOR SPEED™ PAYBACK

RePack

скачать торрент

Кинопоиск HD

Острые козырьки 6 сезон

6 сезон

FAR CRY 6

RePack

скачать торрент

Лицензия

скачать торрент

MVO

1

1 сезон

скачать торрент

1 сезон

скачать торрент

Лицензия

  

Геошторм / Geostorm (Дин Девлин, Пол Гуйо) [2017, фантастика, боевик, триллер, WEB-DL 1080p] Дубляж Open Matte

Геошторм через торрент pb.wtf

Размер: 9.37 GB | Добавлен: 4 года 7 мес. назад | Торрент скачан:170 раз
Смотреть онлайн | Скачать | Поддержите нас   

20-06-2018 19:03 Геошторм Скачать торрент  

Название: Геошторм

Оригинальное название: Geostorm

Год выпуска: 2017

Страна: США

Студия: Warner Bros., Electric Entertainment, Jerry Bruckheimer Films, Skydance Media

Продолжительность: 01:49:14

Перевод: Профессиональный (дублированный) Blu-ray CEE

Жанр: фантастика, боевик, триллер

Режиссер: Дин Девлин, Пол Гуйо

В ролях: Джерард Батлер, Джим Стёрджесс, Эбби Корниш, Александра Мария Лара, Дэниэл Ву, Эухенио Дербес, Амр Вакед, Эдеперо Одуйе, Энди Гарсиа, Эд Харрис

Описание: После беспрецедентной серии стихийных бедствий, обрушившихся на нашу планету, лидеры мировых держав объединили усилия, чтобы создать разветвленную сеть орбитальных спутников по контролю над климатом для предотвращения природных катаклизмов. Но что-то пошло не так — система, выстроенная для защиты Земли, теперь угрожает ей. Начинается гонка наперегонки со временем, в которой надо успеть обнаружить реальную угрозу до того, как всемирный Геошторм сотрёт с лица Земли всё живое.





MPAA: PG-13 - Детям до 13 лет просмотр не желателен

Файл

Качество: WEB-DL 1080p | Open Matte

Формат: Matroska

Видео: 1920x1080 at 23.976 fps, MPEG-4 AVC, ~12500 kbps avg

Аудио#1: 48 kHz, AC3,3/2 (L,C,R,l,r) + LFE ch, ~448 kbps avg |Дубляж, Blu-ray CEE|

Аудио#2: 48 kHz E-AC3, 3/2 (L,C,R,l,r) + LFE ch, ~640 kbps avg |Amazon|

Субтитры: Russian (Captions), Russian (Full), English (SDH, Amazon)

***Исходник видео - Amazon.

***Релиз: spartanec163.
Многие сцены фильма были пересняты, когда на последних этапах работы в качестве продюсера был привлечён Джерри Брукхаймер.

Некоторые сцены снимали в центре НАСА в Новом Орлеане, штат Луизиана.

Сначала проектом занималась компания Paramount Pictures, но затем он перешёл в ведение компании Warner Bros.

Режиссёрский дебют Дина Девлина в игровом кинематографе.
Общее

Уникальный идентификатор : 250222699231414114253526138113820454117 (0xBC3F23905C51225B90902FA5B823ECE5)

Полное имя : Geostorm.2017.Open.Matte.1080p.WEB-DL.Rus.Eng.mkv

Формат : Matroska

Версия формата : Version 4 / Version 2

Размер файла : 9,37 Гбайт

Продолжительность : 1 ч. 49 м.

Общий поток : 12,3 Мбит/сек

Название фильма : Geostorm.2017.Open.Matte.1080p.WEB-DL.Rus.Eng-spartanec163

Дата кодирования : UTC 2018-06-20 17:29:09

Программа кодирования : mkvmerge v8.3.0 ('Over the Horizon') 64bit

Библиотека кодирования : libebml v1.3.1 + libmatroska v1.4.2

Видео

Идентификатор : 1

Формат : AVC

Формат/Информация : Advanced Video Codec

Профиль формата : [email protected]

Параметр CABAC формата : Да

Параметр ReFrames формата : 4 кадра

Идентификатор кодека : V_MPEG4/ISO/AVC

Продолжительность : 1 ч. 49 м.

Битрейт : 10,9 Мбит/сек

Ширина : 1920 пикселей

Высота : 1080 пикселей

Соотношение сторон : 16:9

Режим частоты кадров : Постоянный

Частота кадров : 23,976 кадра/сек

Цветовое пространство : YUV

Субдискретизация насыщенности : 4:2:0

Битовая глубина : 8 бит

Тип развёртки : Прогрессивная

Бит/(Пиксели*Кадры) : 0.220

Размер потока : 8,35 Гбайт (89%)

Заголовок : WEB-DL 1080p (Amazon)

Язык : English

Default : Да

Forced : Нет

Основные цвета : BT.709

Характеристики трансфера : BT.709

Коэффициенты матрицы : BT.709

Аудио #1

Идентификатор : 2

Формат : AC-3

Формат/Информация : Audio Coding 3

Расширение режима : CM (complete main)

Параметр Endianness формата : Big

Идентификатор кодека : A_AC3

Продолжительность : 1 ч. 49 м.

Вид битрейта : Постоянный

Битрейт : 448 Кбит/сек

Каналы : 6 каналов

Расположение каналов : Front: L C R, Side: L R, LFE

Частота : 48,0 КГц

Битовая глубина : 16 бит

Метод сжатия : С потерями

Размер потока : 350 Мбайт (4%)

Заголовок : AC3 5.1 448kbps (Дубляж - BluRay)

Язык : Russian

Default : Да

Forced : Нет

Аудио #2

Идентификатор : 3

Формат : E-AC-3

Формат/Информация : Audio Coding 3

Параметр Endianness формата : Big

Идентификатор кодека : A_EAC3

Продолжительность : 1 ч. 49 м.

Вид битрейта : Постоянный

Битрейт : 640 Кбит/сек

Каналы : 6 каналов

Расположение каналов : Front: L C R, Side: L R, LFE

Частота : 48,0 КГц

Метод сжатия : С потерями

Размер потока : 500 Мбайт (5%)

Заголовок : E-AC3 5.1 640Kbps (Оригинал - Amazon)

Язык : English

Default : Нет

Forced : Нет

Текст #1

Идентификатор : 4

Формат : UTF-8

Идентификатор кодека : S_TEXT/UTF8

Идентификатор кодека/Информация : UTF-8 Plain Text

Заголовок : Надписи и пр.

Язык : Russian

Default : Да

Forced : Нет

Текст #2

Идентификатор : 5

Формат : UTF-8

Идентификатор кодека : S_TEXT/UTF8

Идентификатор кодека/Информация : UTF-8 Plain Text

Заголовок : Полные

Язык : Russian

Default : Нет

Forced : Нет

Текст #3

Идентификатор : 6

Формат : UTF-8

Идентификатор кодека : S_TEXT/UTF8

Идентификатор кодека/Информация : UTF-8 Plain Text

Заголовок : Полные

Язык : English

Default : Нет

Forced : Нет

Текст #4

Идентификатор : 7

Формат : UTF-8

Идентификатор кодека : S_TEXT/UTF8

Идентификатор кодека/Информация : UTF-8 Plain Text

Заголовок : Полные, SDH, Amazon

Язык : English

Default : Нет

Forced : Нет
скриншот  скриншот  скриншот  



Скачать Геошторм через торрент https://b.radikal.ru/b14/1806/bf/008d066bbb49.jpg Скачать, смотреть онлайн Геошторм бесплантно в хорошем качестве Описание: После беспрецедентной серии стихийных бедствий, обрушившихся на нашу планету, лидеры мировых держав объединили усилия, чтобы ... 9.7 10 3
Info! Золотая раздача, скачанное не засчитывается.
Торрент: Зарегистрирован [2018-06-20 19:03] · скачан: 170 раз
Статус: √ проверено
Размер: 9.37 GB
Как cкачать? Как скачать Геошторм через торрент | UTorrent




Последний раз редактировалось: Хорват (2018-06-20 20:32), всего редактировалось 1 раз

28-11-2019 20:33  


Отключить вcю реклaмy на сайте, в т.ч. и в плеере онлайн просмотра!

20-06-2018 19:45 Геошторм Скачать торрент  

Укажите правильный заголовок
Правила оформления раздач в разделе «Фильмов»:

1. Заголовок

1.1 Общий вид:

Название на русском / Название на оригинале (режиссер) [год, жанр, качество, перевод]

Скриншоты и обложка не соответствуют правилам форума. Перезалейте Правила оформления раздач в разделе «Фильмов»:

14. Скриншоты

Список рекомендованных хостингов для заливки скриншотов Правила заливки скриншотов!

Администрация ресурса разрешает заливать скрины, постеры, картинки с этих хостингов:
fastpic
lostpic
firepic
directupload.
Запрещено заливать скриншоты на фотохостинги с оплатой за клики! Запрещено заливать скриншоты с переходом на сайт фотохостинга

Вы оформили раздачу не по шаблону: Шаблон оформления-Кино, Видео и ТВ(Жмите)



20-06-2018 20:35 Геошторм Скачать торрент  

Топик был перенесен из форума Фильмы 2017 [DVDrip, WEB-DLRip, HDrip] (Дубляж, MVO) в форум Фильмы (WEB-DL 720p, 1080p)


Arron_H1De



    Дорогой пользователь! Огромная просьба, поблагодарите релизера, оцените раздачу и оставьте свои комментарий, если Вы скачали Геошторм через торрент бесплатно!!
    Комментировать посты могут только пользователи прошедшие не сложную регистрацию
    Показать сообщения:    


    Геошторм через торрент
    Скачать бесплатно Геошторм
    Геошторм скачать торрент
    Геошторм смотреть онлайн
    Cкачать фильм Геошторм бесплатно
    Геошторм скачать торрент в хорошем качестве
    Геошторм смотреть онлайн бесплатно в хорошем качестве
    Вы не можете начинать темы
    Вы не можете отвечать на сообщения
    Вы не можете редактировать свои сообщения
    Вы не можете удалять свои сообщения
    Вы не можете голосовать в опросах
    Вы не можете прикреплять файлы к сообщениям
    Вы можете скачивать файлы
    Геошторм / Geostorm [2017, фантастика, боевик, триллер, WEB-DL 1080p] Дубляж Open Matte смотреть онлайн, скачать торрент picoco.icu