Ссылка на приватное зеркало всего за 1$. Внимание количество ограничено!!!

OK

1+1

iTunes

мы

OK

1

WEB-DLRip

Джокер

Пифагор

Ведьмак / The Witcher сериал

iTunes

ПШазам

ОК

Оно 2

iTunes

30
pack

Вам бонус

ВАЖНО

!!Акция!!

Alien_RageХит недели

RePack

Resident Evil 21

ИГРА 18+

pack

RePack

jed

RePack

fifa19

RePack

Assassins Creed: Odyssey

RePack

NEED FOR SPEED™ PAYBACK

4 сезон

9 сезон

Бесстыжие 9 сезон

Все сериалы

все сериалы на PB.wtf

RePack

FAR CRY 5
  

Налог на любовь / Podatek od milosci (Бартломей Игначук) [2018, Мелодрама, комедия, BDRip 720p] MVO ["Синема УС"] pb.wtf

Налог на любовь через торрент pb.wtf

Размер: 4.75 GB | Добавлен: 1 год 7 мес. назад | Торрент скачан:20 раз
Скачать  

20-06-2018 20:08 Налог на любовь Скачать торрент  

Налог на любовь / Podatek od milosciГод выпуска: 2018
Страна: Польша
Жанр: Мелодрама, комедия
Продолжительность: 01:29:29
Перевод: Любительский (многоголосый) | "Синема УС"
Субтитры: отсутствуют

Режиссер: Бартломей Игначук

rating

В ролях:

Пшемыслав Богданович, Сильвия Боровска, Марта Брайла, Михал Чернецкий, Гжегож Даменцки, Олаф Деригласофф, Александра Доманьска, Бартломей Фирлет, Рома Гонщёровска, Эва Гаврылюк

Описание:

Это история любви, которая может настигнуть нас, где угодно, даже в налоговой инспекции. Клара, налоговый инспектор, который относится к своей работе со всей ответственностью, случайно встречается с безответственным и циничным Марианом, которого собираются обвинить в уклонении от уплаты налогов. Что принесет им эта встреча?

Качество: BDRip 720p
Формат: MKV

Видео: h.264, 6 172 kb/s, 1280x480
Аудио#1: Русский, (AC3, 2 ch, 448 Кбит/с)
скриншот  скриншот  скриншот  

Общее
Уникальный идентификатор : 215358683184191927098417711031918404803 (0xA20492DC38E14C7EA523E9B644EA24C3)
Полное имя : D:\Taxing.love.2O18.P.BDRip.72Op_KOSHARA.mkv
Формат : Matroska
Версия формата : Version 2
Размер файла : 4,75 Гбайт
Продолжительность : 1 ч. 42 м.
Режим общего битрейта : Переменный
Общий поток : 6622 Кбит/сек
Дата кодирования : UTC 2018-06-20 12:58:06
Программа кодирования : mkvmerge v8.3.0 ('Over the Horizon') 64bit
Библиотека кодирования : libebml v1.3.1 + libmatroska v1.4.2

Видео
Идентификатор : 1
Формат : AVC
Формат/Информация : Advanced Video Codec
Профиль формата : High@L4.1
Параметр CABAC формата : Да
Параметр RefFrames формата : 4 кадра
Идентификатор кодека : V_MPEG4/ISO/AVC
Продолжительность : 1 ч. 42 м.
Вид битрейта : Переменный
Битрейт : 6172 Кбит/сек
Максимальный битрейт : 6900 Кбит/сек
Ширина : 1280 пикселей
Высота : 480 пикселей
Соотношение сторон : 2,667
Режим частоты кадров : Постоянный
Частота кадров : 23,976 (24000/1001) кадра/сек
Стандарт вещания : Component
Цветовое пространство : YUV
Субдискретизация насыщенности : 4:2:0
Битовая глубина : 8 бит
Тип развёртки : Прогрессивная
Бит/(Пиксели*Кадры) : 0.410
Размер потока : 4,33 Гбайт (91%)
Default : Да
Forced : Нет
Цветовой диапазон : Limited
Основные цвета : BT.709
Характеристики трансфера : BT.709
Коэффициенты матрицы : BT.709

Аудио
Идентификатор : 2
Формат : AC-3
Формат/Информация : Audio Coding 3
Расширение режима : CM (complete main)
Параметр Endianness формата : Big
Идентификатор кодека : A_AC3
Продолжительность : 1 ч. 42 м.
Вид битрейта : Постоянный
Битрейт : 448 Кбит/сек
Каналы : 2 канала
Расположение каналов : Front: L R
Частота : 48,0 КГц
Частота кадров : 31,250 кадров/сек (1536 spf)
Метод сжатия : С потерями
Размер потока : 329 Мбайт (7%)
Default : Да
Forced : Нет

pb.wtf



Скачать Налог на любовь через торрент http://img12.lostpic.net/2018/06/20/ea7462d833139f1ed139c78d65fe8375.jpg Скачать фильм Налог на любовь через торрент бесплантно в хорошем качестве Описание: Это история любви, которая может настигнуть нас, где угодно, даже в налоговой инспекции. Клара, налоговый инспектор, который ... 10 10 3
Торрент: Зарегистрирован [2018-06-20 20:08] · скачан: 20 раз
Статус: # сомнительно
Размер: 4.75 GB
Как cкачать? Как скачать Налог на любовь через торрент | qTorrent

% Раздел Тема Автор DL S | L
T Фильмы (мультфильмы) cо спонсором показа (Новинки AVI/MKV) [ 1.37 GB ] Налог на любовь / Podatek od milosci [2018 Мело HDRip] MVO ["Синема УС"] bober100 Скачать
1 | 0

28-11-2019 20:33  

Отключить всю рекламу на сайте

    Дорогой пользователь! Огромная просьба, поблагодарите релизера, оцените раздачу и оставьте свои комментарий, если Вы скачали Налог на любовь через торрент бесплатно! Внесите свою лепту в развитие PiratBit!
    Комментировать посты могут только пользователи прошедшие не сложную регистрацию
    Показать сообщения:    

    Налог на любовь через торрент
    Скачать бесплатно Налог на любовь
    Налог на любовь скачать торрент
    Налог на любовь смотреть онлайн
    Cкачать фильм Налог на любовь бесплатно
    Налог на любовь скачать торрент в хорошем качестве
    Налог на любовь смотреть онлайн бесплатно в хорошем качестве


    Вы не можете начинать темы
    Вы не можете отвечать на сообщения
    Вы не можете редактировать свои сообщения
    Вы не можете удалять свои сообщения
    Вы не можете голосовать в опросах
    Вы не можете прикреплять файлы к сообщениям
    Вы можете скачивать файлы