новый адрес
Мега распродажа FORZA HORIZON 4 ULTIMATE+ВСЕ DLC+ОНЛАЙН всего за 499р. 349 руб. (супер цена). Внимание количество ограничено!!!

iTunes

1+1

iTunes

мы

iTunes

1

iTunes

Чернобыль

iTunes

Ральф против интернета

Лицензия

ПШазам

Лицензия

Игра престолов

Лицензия

30
pack

ВАЖНО

!!Акция!!

Alien_RageХит недели

RePack

Resident Evil 21

ИГРА 18+

pack

RePack

Metro:Exodus

!!Акция!!

Alien_Rage

RePack

fifa19

RePack

Assassins Creed: Odyssey

RePack

NEED FOR SPEED™ PAYBACK

3 сезон

9 сезон

Бесстыжие 9 сезон

Все сериалы

все сериалы на PB.wtf

RePack

FAR CRY 5
Ребята, катастрофически не хватает 1900р. для оплаты серверов за Октябрь (всвязи с блокировками трафик упал в 3 раза), 1-2р., выручайте.
  

Тетя Маша (Александр Грабарь) [2018 г., Мелодрама, WEB-DLRip, Не требуется (Русский)] pb.wtf

Тетя Маша через торрент pb.wtf

Раздают: 1 [ 0 KB/s ]
Размер: 699 MB | Добавлен: 1 год 4 мес. назад | Торрент скачан:64 раза
Скачать  

21-06-2018 04:31 Тетя Маша Скачать торрент  

Тетя Маша
Год выпуска: 2018
Страна: Россия / Паламеда Продакшн
Жанр: Мелодрама
Продолжительность: 01:30:10
Перевод: Не требуется (Русский)
Субтитры: Нет

Режиссер: Александр Грабарь



В ролях: Алла Юганова, Александр Константинов, Мария Пирогова, Соня Кравчук, Ольга Бранкевич, Татьяна Гаркуша, Алеся Пуховая

Описание: Семья Анны жила спокойно и счастливо, пока Анну не повысили на работе. Чтобы не оставлять дочку одну, Анна пригласила няню. Тетя Маша девочке очень понравилась, они быстро подружились и стали неразлучны. Чем дольше Анна задерживалась на работе, тем больше времени ее дочь проводила в обществе няни. Анна понимала, что семья важнее карьеры, но у нее уже не было выбора. А девочка так привязалась к тете Маше, что однажды назвала ее мамой. Молодая семья и не подозревает, что тетя Маша, появившаяся в их доме, страдает душевной болезнью и искренне уверена, что девочка – ее родная дочь…

Качество: WEB-DLRip
Формат: AVI
Видео кодек: DivX 5
Аудио кодек: AC3
Видео: 720x400 (1.80:1), 25 fps, DX50, ~878 kbps avg, 0.12 bit/pixel
Аудио: 48 kHz, AC3 Dolby Digital, 2/0 (L,R) ch, ~192 kbps

скриншот   скриншот   скриншот   скриншот   скриншот   скриншот  

Общее
Полное имя : D:\Tetja.Masha.2018.WEBDLRip.WEB-DLRip.700.avi
Формат : AVI
Формат/Информация : Audio Video Interleave
Размер файла : 699 Мбайт
Продолжительность : 1 ч. 30 м.
Общий поток : 1081 Кбит/сек
Программа кодирования : VirtualDubMod 1.5.10.3 | www.virtualdub-fr.org || (build 2550/release)
Библиотека кодирования : VirtualDubMod build 2550/release

Видео
Идентификатор : 0
Формат : MPEG-4 Visual
Профиль формата : Advanced Simple@L5
Параметр BVOP формата : 1
Параметр QPel формата : Нет
Параметр GMC формата : Без точки перехода
Параметр матрицы формата : Default (H.263)
Идентификатор кодека : DX50
Идентификатор кодека/Подсказка : DivX 5
Продолжительность : 1 ч. 30 м.
Битрейт : 879 Кбит/сек
Ширина : 720 пикселей
Высота : 400 пикселей
Соотношение сторон : 16:9
Частота кадров : 25,000 кадров/сек
Цветовое пространство : YUV
Субдискретизация насыщенности : 4:2:0
Битовая глубина : 8 бит
Тип развёртки : Прогрессивная
Метод сжатия : С потерями
Бит/(Пиксели*Кадры) : 0.122
Размер потока : 568 Мбайт (81%)
Библиотека кодирования : XviD 1.2.1 (UTC 2008-12-04)

Аудио
Идентификатор : 1
Формат : AC-3
Формат/Информация : Audio Coding 3
Расширение режима : CM (complete main)
Параметр Endianness формата : Big
Идентификатор кодека : 2000
Продолжительность : 1 ч. 30 м.
Вид битрейта : Постоянный
Битрейт : 192 Кбит/сек
Каналы : 2 канала
Расположение каналов : Front: L R
Частота : 48,0 КГц
Битовая глубина : 16 бит
Метод сжатия : С потерями
Размер потока : 124 Мбайт (18%)
Выравнивание : Разделение по промежуткам
Продолжительность промежутка : 40 мс. (1,00 видеокадр)
Время предзагрузки промежутка : 500 мс.

pb.wtf



Скачать Тетя Маша через торрент http://i105.fastpic.ru/big/2018/0621/ff/bfb85d9a077aca1c4ed05f77281f1cff.jpg Скачать фильм Тетя Маша через торрент бесплантно в хорошем качестве Описание: Семья Анны жила спокойно и счастливо, пока Анну не повысили на работе. Чтобы не оставлять дочку одну, Анна пригласила няню. Тетя ... 8.9 10 7
Торрент: Зарегистрирован [2018-06-21 04:31] · скачан: 64 раз
Статус: √ проверено
Размер: 699 MB
Как cкачать? Как скачать Тетя Маша через торрент | qTorrent

% Раздел Тема Автор DL S | L
Наши фильмы (HD, WEB-DL 720p, 1080p) [ 4.55 GB ] Тетя Маша [2018 HDTV 1080p] [Русский] R.G.Generalfilm White Smoke Скачать
1 | 0


>> Регистрируемся здесь <<






Отзывы и комментарии о схеме читаем и пишем здесь: ---> Отзывы и комментарии о схеме

Новые благодарочки в телеграм довольных пользователей:
скриншот   скриншот   скриншот   скриншот   скриншот

21-06-2018 06:06 Тетя Маша Скачать торрент  

Топик был перенесен из форума Фильмы 2018 [DVDrip, WEB-DLRip, HDrip] (DUB, MVO) в форум Наши новые фильмы 2018


-Lexx-pb.wtf



    Дорогой пользователь! Огромная просьба, поблагодарите релизера, оцените раздачу и оставьте свои комментарий, если Вы скачали Тетя Маша через торрент бесплатно! Внесите свою лепту в развитие PiratBit!
    Комментировать посты могут только пользователи прошедшие не сложную регистрацию
    Показать сообщения:    

    Тетя Маша через торрент
    Скачать бесплатно Тетя Маша
    Тетя Маша скачать торрент
    Тетя Маша смотреть онлайн
    Cкачать фильм Тетя Маша бесплатно
    Тетя Маша скачать торрент в хорошем качестве
    Тетя Маша смотреть онлайн бесплатно в хорошем качестве


    Вы не можете начинать темы
    Вы не можете отвечать на сообщения
    Вы не можете редактировать свои сообщения
    Вы не можете удалять свои сообщения
    Вы не можете голосовать в опросах
    Вы не можете прикреплять файлы к сообщениям
    Вы можете скачивать файлы