Ссылка на приватное зеркало нашего сайта всего за 1$. Внимание количество ограничено!!!

2 сезон

iTunes

1 сезон

1

2 сезон

2 сезон

iTunes

1 сезон

RePack

30

Ultimate

ВАЖНО

ИГРА 18+

pack

RePack

MK11
pack

Забери бонус

RePack

jed

!!Акция!!

Alien_Rage

RePack

fifa19

RePack

Assassins Creed: Odyssey

RePack

NEED FOR SPEED™ PAYBACK

4 сезон

9 сезон

Бесстыжие 9 сезон

Все сериалы

все сериалы на PB.wtf

RePack

FAR CRY 5
  

Правда или действие / Truth or Dare (Джефф Уодлоу) [2018, Ужасы, триллер, WEB-DL 720p] [Расширенная версия] DUB [iTunes] pb.wtf

Правда или действие через торрент pb.wtf

Размер: 3.12 GB | Добавлен: 2 года 5 мес. назад | Торрент скачан:390 раз
Скачать  

21-06-2018 05:34 Правда или действие Скачать торрент  

Правда или действие / Truth or Dare
Год выпуска: 2018
Страна: США
Жанр: Ужасы, триллер
Продолжительность: 01:40:32
Перевод: Дублированный | iTunes
Субтитры: отсутствуют

Режиссер: Джефф Уодлоу

rating

В ролях:

Люси Хейл, Тайлер Пози, Вайолетт Бин, Софи Тэйлор Али, Нолан Джерард Фанк, Лэндон Либуарон, Сэм Лернер, Гари Энтони Уильямс, Хейден Сзето

Описание:

Обычная игра «Правда или действие» превращается в жестокую гонку со смертью, когда к процессу подключается нечто сверхъестественное. Стоит кому-то из участников соврать или не выполнить положенное действие, его ждет жестокая расправа. Кто в итоге сможет выйти победителем в жестокой игре?

Качество: WEB-DL 720p | Расширенная версия
Формат: MKV

Видео: MPEG-4 AVC, 3976 Кбит/с, 1280x532, 23.976 кадр/с
Аудио: Русский (AC3, 6 ch, 384 Кбит/с)
скриншот   скриншот   скриншот  

Общее
Уникальный идентификатор : 171799860105331435461772943263330540520 (0x813F73128D7484B786CA879A8E4D1BE8)
Полное имя : D:\TRUETH_OR_DARE_2018_EC_WEB_DL_720p-BLUEBIRD.mkv
Формат : Matroska
Версия формата : Version 4 / Version 2
Размер файла : 3,12 Гбайт
Продолжительность : 1 ч. 40 м.
Общий поток : 4449 Кбит/сек
Название фильма : TRUETH_OR_DARE_2018_EC_WEB_DL_720p-BLUEBIRD
Дата кодирования : UTC 2018-06-20 18:13:47
Программа кодирования : mkvmerge v6.9.1 ('Blue Panther') 32bit built on Apr 18 2014 18:15:44
Библиотека кодирования : libebml v1.3.0 + libmatroska v1.4.1

Видео
Идентификатор : 1
Формат : AVC
Формат/Информация : Advanced Video Codec
Профиль формата : Main@L3.1
Параметр CABAC формата : Нет
Параметр RefFrames формата : 2 кадра
Идентификатор кодека : V_MPEG4/ISO/AVC
Продолжительность : 1 ч. 40 м.
Битрейт : 3976 Кбит/сек
Ширина : 1280 пикселей
Высота : 532 пикселя
Соотношение сторон : 2,40:1
Режим частоты кадров : Постоянный
Частота кадров : 23,976 кадра/сек
Цветовое пространство : YUV
Субдискретизация насыщенности : 4:2:0
Битовая глубина : 8 бит
Тип развёртки : Прогрессивная
Бит/(Пиксели*Кадры) : 0.244
Размер потока : 2,79 Гбайт (89%)
Заголовок : TRUETH_OR_DARE_2018_EC_WEB_DL_720p-BLUEBIRD
Язык : English
Default : Да
Forced : Нет
Цветовой диапазон : Limited
Основные цвета : BT.709
Характеристики трансфера : BT.709
Коэффициенты матрицы : BT.709

Аудио
Идентификатор : 2
Формат : AC-3
Формат/Информация : Audio Coding 3
Расширение режима : CM (complete main)
Параметр Endianness формата : Big
Идентификатор кодека : A_AC3
Продолжительность : 1 ч. 40 м.
Вид битрейта : Постоянный
Битрейт : 384 Кбит/сек
Каналы : 6 каналов
Расположение каналов : Front: L C R, Side: L R, LFE
Частота : 48,0 КГц
Частота кадров : 31,250 кадров/сек (1536 spf)
Метод сжатия : С потерями
Размер потока : 276 Мбайт (9%)
Заголовок : [DUB] DD 5.1 @ 384 kbps (iTunes)
Язык : Russian
Default : Да
Forced : Нет

Меню
00:00:00.000 : en:1
00:02:31.151 : en:2
00:10:49.065 : en:3
00:14:15.396 : en:4
00:20:27.476 : en:5
00:25:16.306 : en:6
00:29:20.717 : en:7
00:34:53.800 : en:8
00:41:22.104 : en:9
00:45:28.934 : en:10
00:48:33.535 : en:11
00:54:42.695 : en:12
00:58:26.418 : en:13
01:05:53.656 : en:14
01:10:04.114 : en:15
01:15:46.956 : en:16
01:21:59.244 : en:17
01:28:26.214 : en:18
01:31:46.998 : en:19
01:37:56.742 : en:20

pb.wtf



Скачать Правда или действие через торрент http://pic1.kartinco.top/images/11/f6b83.jpg Скачать фильм Правда или действие через торрент бесплантно в хорошем качестве Описание: Обычная игра «Правда или действие» превращается в жестокую гонку со смертью, когда к процессу подключается нечто ... 9.3 10 9
Торрент: Зарегистрирован [2018-06-21 05:34] · скачан: 390 раз
Статус: √ проверено
Размер: 3.12 GB
Как cкачать? Как скачать Правда или действие через торрент | qTorrent

% Раздел Тема Автор DL S | L
Фильмы [HD 720p, 1080p] (Хороший звук DUB, MVO) [ 7.73 GB ] Правда или действие / Truth or Dare [2018 BDRip 1080p] [Расширенная версия] DUB [] bober100 Скачать
1 | 0
Фильмы 2018 [DVDrip, WEB-DLRip, HDrip] (DUB, MVO) [ 1.43 GB ] Правда или действие / Truth or Dare [2018 BDRip-AVC] [Расширенная версия] DUB [] bober100 Скачать
1 | 0
Фильмы (Blu-ray, BD-Remux, HDDVD) [ 27.77 GB ] Правда или действие / Truth or Dare [2018 BD Remux 1080p] [Расширенная версия] DUB [] bober100 Скачать
1 | 0
Фильмы [HD 720p, 1080p] (Хороший звук DUB, MVO) [ 4.52 GB ] Правда или действие / Truth or Dare [2018 BDRip 720p] [Расширенная версия] DUB [] bober100 Скачать
1 | 0
Фильмы 2018 [DVDrip, WEB-DLRip, HDrip] (DUB, MVO) [ 748 MB ] Правда или действие / Truth or Dare [2018 HDRip] DUB [ BD EUR] bober100 Скачать
1 | 0
Фильмы 2018 [DVDrip, WEB-DLRip, HDrip] (DUB, MVO) [ 1.46 GB ] Правда или действие / Truth or Dare [2018 BDRip] DUB [ BD EUR] bober100 Скачать
1 | 0
Ultra HD (UHD: 2K, 4K, 8K) — видео сверхвысокой чёткости [ 21.17 GB ] Правда или действие / Truth or Dare [2018 UHD WEBRip 2160p] - sheker187 Скачать
1 | 0

28-11-2019 20:33  

Отключить всю рекламу на сайте

21-06-2018 19:50 Правда или действие Скачать торрент  

что за бред!! редчайшее и предсказуемое дерьмо!! кино для аутистов !pb.wtf



24-06-2018 08:54 Правда или действие Скачать торрент  

Пойду гляну :Dpb.wtf



26-06-2018 09:39 Правда или действие Скачать торрент  

фильм среднячок, но концовка приятнаяpb.wtf



30-06-2018 11:15 Правда или действие Скачать торрент  

хороший фильм, концовка порадовала pb.wtf



    Дорогой пользователь! Огромная просьба, поблагодарите релизера, оцените раздачу и оставьте свои комментарий, если Вы скачали Правда или действие через торрент бесплатно! Внесите свою лепту в развитие PiratBit!
    Комментировать посты могут только пользователи прошедшие не сложную регистрацию
    Показать сообщения:    

    Правда или действие через торрент
    Скачать бесплатно Правда или действие
    Правда или действие скачать торрент
    Правда или действие смотреть онлайн
    Cкачать фильм Правда или действие бесплатно
    Правда или действие скачать торрент в хорошем качестве
    Правда или действие смотреть онлайн бесплатно в хорошем качестве


    Вы не можете начинать темы
    Вы не можете отвечать на сообщения
    Вы не можете редактировать свои сообщения
    Вы не можете удалять свои сообщения
    Вы не можете голосовать в опросах
    Вы не можете прикреплять файлы к сообщениям
    Вы можете скачивать файлы