Ссылка на приватное зеркало всего за 1$. Внимание количество ограничено!!!

OK

1+1

iTunes

мы

OK

1

WEB-DLRip

Джокер

Пифагор

Ведьмак / The Witcher сериал

iTunes

ПШазам

ОК

Оно 2

iTunes

30
pack

Вам бонус

ВАЖНО

!!Акция!!

Alien_RageХит недели

RePack

Resident Evil 21

ИГРА 18+

pack

RePack

jed

RePack

fifa19

RePack

Assassins Creed: Odyssey

RePack

NEED FOR SPEED™ PAYBACK

4 сезон

9 сезон

Бесстыжие 9 сезон

Все сериалы

все сериалы на PB.wtf

RePack

FAR CRY 5
  

Сдачи не надо / Keep the Change (Рэйчел Израэль) [2017, мелодрама, комедия, WEB-DL 720p] MVO ["Синема УС"] pb.wtf

Сдачи не надо через торрент pb.wtf

Размер: 3.18 GB | Добавлен: 1 год 7 мес. назад | Торрент скачан:37 раз
Скачать  

21-06-2018 07:31 Сдачи не надо Скачать торрент  

Сдачи не надо / Keep the ChangeГод выпуска: 2017
Страна: США
Жанр: мелодрама, комедия
Продолжительность: 01:36:08
Перевод: Любительский (многоголосый) | "Синема УС"
Субтитры: отсутствуют

Режиссер: Рэйчел Израэль

rating

В ролях:

Джессика Уолтер, Кристина Брукато, Саманта Элисофон, Эвандер Дак мл., Брэндон Полански, Джонатан Чайковский, Сондра Джеймс, Тибор Фельдман, Дженнифер Брито, Томми Бердмор

Описание:

Трогательная история любви между людьми, которые знакомятся в группе поддержки. Их странности и недостатки становятся именно теми качествами, которые помогают им оставаться вместе и справляться с этим миром.

Качество: WEB-DL 720p
Формат: MKV

Видео: h.264, 4352 kb/s, 1280x720
Аудио#1: Русский, (AC3, 2 ch, 384 Кбит/с)
скриншот  скриншот  скриншот  

Общее
Уникальный идентификатор : 233411391364953664430814037734319642734 (0xAF996617B264D8B78A012C9A35DAD86E)
Полное имя : D:\Keep the Change 2017.P.WEB-DL.72Op_KOSHARA.mkv
Формат : Matroska
Версия формата : Version 2
Размер файла : 3,18 Гбайт
Продолжительность : 1 ч. 36 м.
Режим общего битрейта : Переменный
Общий поток : 4737 Кбит/сек
Дата кодирования : UTC 2018-06-20 18:35:54
Программа кодирования : mkvmerge v8.3.0 ('Over the Horizon') 64bit
Библиотека кодирования : libebml v1.3.1 + libmatroska v1.4.2

Видео
Идентификатор : 1
Формат : AVC
Формат/Информация : Advanced Video Codec
Профиль формата : High@L4.1
Параметр CABAC формата : Да
Параметр RefFrames формата : 4 кадра
Идентификатор кодека : V_MPEG4/ISO/AVC
Продолжительность : 1 ч. 36 м.
Вид битрейта : Переменный
Битрейт : 4352 Кбит/сек
Максимальный битрейт : 5000 Кбит/сек
Ширина : 1280 пикселей
Высота : 720 пикселей
Соотношение сторон : 16:9
Режим частоты кадров : Постоянный
Частота кадров : 23,976 (24000/1001) кадра/сек
Стандарт вещания : Component
Цветовое пространство : YUV
Субдискретизация насыщенности : 4:2:0
Битовая глубина : 8 бит
Тип развёртки : Прогрессивная
Бит/(Пиксели*Кадры) : 0.193
Размер потока : 2,86 Гбайт (90%)
Default : Да
Forced : Нет
Цветовой диапазон : Limited
Основные цвета : BT.709
Характеристики трансфера : BT.709
Коэффициенты матрицы : BT.709

Аудио
Идентификатор : 2
Формат : AC-3
Формат/Информация : Audio Coding 3
Расширение режима : CM (complete main)
Параметр Endianness формата : Big
Идентификатор кодека : A_AC3
Продолжительность : 1 ч. 36 м.
Вид битрейта : Постоянный
Битрейт : 384 Кбит/сек
Каналы : 2 канала
Расположение каналов : Front: L R
Частота : 48,0 КГц
Частота кадров : 31,250 кадров/сек (1536 spf)
Метод сжатия : С потерями
Размер потока : 264 Мбайт (8%)
Default : Да
Forced : Нет

pb.wtf



Скачать Сдачи не надо через торрент http://img12.lostpic.net/2018/06/21/e392392ac2971ebcff81c0d8740e0761.jpg Скачать фильм Сдачи не надо через торрент бесплантно в хорошем качестве Описание: Трогательная история любви между людьми, которые знакомятся в группе поддержки. Их странности и недостатки становятся именно теми ... 7.8 10 4
Торрент: Зарегистрирован [2018-06-21 07:31] · скачан: 37 раз
Статус: T временная
Размер: 3.18 GB
Как cкачать? Как скачать Сдачи не надо через торрент | qTorrent

% Раздел Тема Автор DL S | L
T Фильмы (мультфильмы) cо спонсором показа (Новинки AVI/MKV) [ 1.37 GB ] Сдачи не надо / Keep the Change [2017 WEB-DLRip] MVO ["Синема УС"] bober100 Скачать
1 | 0

28-11-2019 20:33  

Отключить всю рекламу на сайте

23-06-2018 09:19 Сдачи не надо Скачать торрент  

Не просто признаться, но фильм понравился.
Есть в нем что-то очень личное.pb.wtf



    Дорогой пользователь! Огромная просьба, поблагодарите релизера, оцените раздачу и оставьте свои комментарий, если Вы скачали Сдачи не надо через торрент бесплатно! Внесите свою лепту в развитие PiratBit!
    Комментировать посты могут только пользователи прошедшие не сложную регистрацию
    Показать сообщения:    

    Сдачи не надо через торрент
    Скачать бесплатно Сдачи не надо
    Сдачи не надо скачать торрент
    Сдачи не надо смотреть онлайн
    Cкачать фильм Сдачи не надо бесплатно
    Сдачи не надо скачать торрент в хорошем качестве
    Сдачи не надо смотреть онлайн бесплатно в хорошем качестве


    Вы не можете начинать темы
    Вы не можете отвечать на сообщения
    Вы не можете редактировать свои сообщения
    Вы не можете удалять свои сообщения
    Вы не можете голосовать в опросах
    Вы не можете прикреплять файлы к сообщениям
    Вы можете скачивать файлы