Ссылка на приватное зеркало нашего сайта всего за 1$. Внимание количество ограничено!!!

2 сезон

iTunes

1 сезон

1

2 сезон

2 сезон

iTunes

1 сезон

RePack

30

Новинка

ВАЖНО

ИГРА 18+

pack

RePack

MK11
pack

Забери бонус

RePack

jed

!!Акция!!

Alien_Rage

RePack

fifa19

RePack

Assassins Creed: Odyssey

RePack

NEED FOR SPEED™ PAYBACK

4 сезон

9 сезон

Бесстыжие 9 сезон

Все сериалы

все сериалы на PB.wtf

RePack

FAR CRY 5
  

Тело / Replace (Норберт Кайль) [2017, Фантастика, триллер, WEB-DL 1080p] [AMAZON Version] MVO [Лицензия / iTunes] pb.wtf

Тело через торрент pb.wtf

Размер: 4.91 GB | Добавлен: 2 года 5 мес. назад | Торрент скачан:232 раза
Скачать  

21-06-2018 08:33 Тело Скачать торрент  

Тело / Replace
Год выпуска: 2017
Страна: Германия, Канада
Жанр: Фантастика, триллер
Продолжительность: 01:41:10
Перевод: Профессиональный многоголосый | Лицензия / iTunes
Субтитры: отсутствуют

Режиссер: Норберт Кайль

rating

В ролях:

Ребекка Форсайт, Люси Арон, Барбара Крэмптон, Шон Нопп, Аднан Марал, Аньес Киёми Декер, Дж. Дэвид Хинц, Тереза Глюк, Даниэль Хольцберг, Маттиас Байер

Описание:

Молодая женщина Кира мало того, что страдает провалами в памяти, так ещё и её кожа местами быстро стареет и начинает осыпаться. Обращение в престижную клинику ничего не дает. Врач только выписывает обезболивающее и предлагает подождать результатов анализов, а болезнь тем временем прогрессирует с пугающей скоростью. Однако выясняется, что Кира может заменить собственную кожу чужой.

Качество: WEB-DL 1080p | AMAZON Version
Формат: MKV

Видео: MPEG-4 AVC, 1920x816, 5926 Kbit/s, 24.000 fps
Аудио#1: 48 kHz, AC3, 5.1, 384 Kbps | iTunes | RUS |
Аудио#2: 48 kHz, AC3, 5.1, 640 Kbps | Оригинал | ENG |
скриншот   скриншот   скриншот   скриншот   скриншот  

General
Unique ID : 243847462348669253487289801461594480656 (0xB773501E25C195EA9D374C03E6166010)
Complete name : D:Video111Replace.2017.AMZN.WEB-DL.1080p.ExKinoRay.mkv
Format : Matroska
Format version : Version 4 / Version 2
File size : 4.91 GiB
Duration : 1 h 41 min
Overall bit rate mode : Variable
Overall bit rate : 6 952 kb/s
Movie name : Replace 2017 from ExKinoRay AMZN Version
Encoded date : UTC 2018-06-21 07:34:36
Writing application : mkvmerge v7.3.0 ('Nouages') 64bit built on Oct 22 2014 18:53:34
Writing library : libebml v1.3.0 + libmatroska v1.4.1

Video
ID : 1
Format : AVC
Format/Info : Advanced Video Codec
Format profile : High@L4
Format settings : CABAC / 4 Ref Frames
Format settings, CABAC : Yes
Format settings, ReFrames : 4 frames
Codec ID : V_MPEG4/ISO/AVC
Duration : 1 h 41 min
Bit rate mode : Variable
Bit rate : 5 926 kb/s
Maximum bit rate : 15.0 Mb/s
Width : 1 920 pixels
Height : 816 pixels
Display aspect ratio : 2.35:1
Frame rate mode : Constant
Frame rate : 24.000 FPS
Color space : YUV
Chroma subsampling : 4:2:0
Bit depth : 8 bits
Scan type : Progressive
Bits/(Pixel*Frame) : 0.158
Stream size : 4.19 GiB (85%)
Language : English
Default : Yes
Forced : No
Color range : Limited
Color primaries : BT.709
Transfer characteristics : BT.709
Matrix coefficients : BT.709

Audio #1
ID : 2
Format : AC-3
Format/Info : Audio Coding 3
Codec ID : A_AC3
Duration : 1 h 41 min
Bit rate mode : Constant
Bit rate : 384 kb/s
Channel(s) : 6 channels
Channel positions : Front: L C R, Side: L R, LFE
Sampling rate : 48.0 kHz
Frame rate : 31.250 FPS (1536 SPF)
Bit depth : 16 bits
Compression mode : Lossy
Stream size : 278 MiB (6%)
Title : iTunes
Language : Russian
Service kind : Complete Main
Default : Yes
Forced : Yes

Audio #2
ID : 3
Format : AC-3
Format/Info : Audio Coding 3
Codec ID : A_AC3
Duration : 1 h 41 min
Bit rate mode : Constant
Bit rate : 640 kb/s
Channel(s) : 6 channels
Channel positions : Front: L C R, Side: L R, LFE
Sampling rate : 48.0 kHz
Frame rate : 31.250 FPS (1536 SPF)
Bit depth : 16 bits
Compression mode : Lossy
Stream size : 463 MiB (9%)
Title : Original
Language : English
Service kind : Complete Main
Default : No
Forced : No

Menu
00:00:00.000 : en:1
00:09:49.798 : en:2
00:21:31.666 : en:3
00:34:19.141 : en:4
00:44:03.934 : en:5
00:58:29.174 : en:6
01:11:17.192 : en:7
01:21:53.745 : en:8
01:32:33.968 : en:9

pb.wtf



Скачать Тело через торрент http://img12.lostpic.net/2018/06/21/f3edea8cadff835f06a204110a044719.jpg Скачать фильм Тело через торрент бесплантно в хорошем качестве Описание: Молодая женщина Кира мало того, что страдает провалами в памяти, так ещё и её кожа местами быстро стареет и начинает осыпаться. ... 10 10 5
Торрент: Зарегистрирован [2018-06-21 08:33] · скачан: 232 раз
Статус: √ проверено
Размер: 4.91 GB
Как cкачать? Как скачать Тело через торрент | qTorrent

% Раздел Тема Автор DL S | L
R.G. Resident & PiratVoice - Фильмы, Видео [ 1.46 GB ] Тело / Replace [2017 WEB-DLRip от R.G. Resident] MVO -Lexx- Скачать
1 | 0
Фильмы (WEB-DL 720p, 1080p) [ 1.89 GB ] Тело / Replace [2017 WEB-DL 720p] [AMAZON Version] MVO bober100 Скачать
1 | 0
Фильмы 2017 [DVDrip, WEB-DLRip, HDrip] (DUB, MVO) [ 1.46 GB ] Тело / Replace [2017 WEB-DLRip] [AMAZON Version] MVO bober100 Скачать
2 | 0

28-11-2019 20:33  

Отключить всю рекламу на сайте

21-06-2018 10:33 Тело Скачать торрент  

после трейлера смотреть неохотаpb.wtf



    Дорогой пользователь! Огромная просьба, поблагодарите релизера, оцените раздачу и оставьте свои комментарий, если Вы скачали Тело через торрент бесплатно! Внесите свою лепту в развитие PiratBit!
    Комментировать посты могут только пользователи прошедшие не сложную регистрацию
    Показать сообщения:    

    Тело через торрент
    Скачать бесплатно Тело
    Тело скачать торрент
    Тело смотреть онлайн
    Cкачать фильм Тело бесплатно
    Тело скачать торрент в хорошем качестве
    Тело смотреть онлайн бесплатно в хорошем качестве


    Вы не можете начинать темы
    Вы не можете отвечать на сообщения
    Вы не можете редактировать свои сообщения
    Вы не можете удалять свои сообщения
    Вы не можете голосовать в опросах
    Вы не можете прикреплять файлы к сообщениям
    Вы можете скачивать файлы