новый адрес
Ссылка на приватное зеркало всего за 1$. Внимание количество ограничено!!!

iTunes

1+1

iTunes

мы

iTunes

1

iTunes

Чернобыль

iTunes

Ральф против интернета

Лицензия

ПШазам

Лицензия

Оно 2

Лицензия

30
pack

Вам бонус

ВАЖНО

!!Акция!!

Alien_RageХит недели

RePack

Resident Evil 21

ИГРА 18+

pack

RePack

jed

!!Акция!!

Alien_Rage

RePack

fifa19

RePack

Assassins Creed: Odyssey

RePack

NEED FOR SPEED™ PAYBACK

3 сезон

9 сезон

Бесстыжие 9 сезон

Все сериалы

все сериалы на PB.wtf

RePack

FAR CRY 5
Ребята, катастрофически не хватает 1900р. для оплаты серверов за Октябрь (всвязи с блокировками трафик упал в 3 раза), 1-2р., выручайте.
  

Трижды воскресший (Леонид Гайдай) [1960, СССР, драма, комедия, DVDRip от AVP Studio] pb.wtf

Трижды воскресший через торрент pb.wtf

Размер: 1.09 GB | Добавлен: 1 год 5 мес. назад | Торрент скачан:17 раз
Скачать  

21-06-2018 08:47 Трижды воскресший Скачать торрент  

Трижды воскресший
Страна: СССР
Производство: Мосфильм

Жанр: драма, комедия
Год выпуска: 1960
Продолжительность: 01:15:21

Перевод: Не требуется
Cубтитры: нет
Оригинальная аудиодорожка: русский

Режиссер: Леонид Гайдай

В ролях:
Алла Ларионова, Георгий Куликов, Наталья Медведева, Всеволод Санаев, Константин Сорокин, Николай Боголюбов, Надежда Румянцева, Нина Гребешкова, Николай Погодин, Геннадий Павлов, Владислав Баландин, Владимир Лебедев, В. Шиханов, Ольга Наровчатова, Н. Мисик, Алексей Крыченков...
Об актёрах подробней

Описание:
Возле маленького приволжского городка стоит на мертвом якоре "Орленок" - вышедший из строя буксир. У него славная история. В 1919 году комсомольцы отправлялись на "Орленке" бить белых, а в дни Отечественной войны комсомольцы нового поколения перевозили на нем детей и раненых бойцов из героического Сталинграда. Теперь пароходиком завладели ребята. Они бережно собрали здесь все, что рассказывало об истории "Орленка", совершали на нем воображаемые путешествия.

Источник: DVD5 R5
Качество видео: DVDRip
Формат видео: AVI

Видео: 704x528 (4:3), 25,000 кадров/сек, XviD ~ 1870 kbps avg, 0.201 bit/pixel
Аудио: 48 kHz, Dolby Digital AC3 2.0, 192 kbps

Раздача от:
Общее
Полное имя : Trizhdy.voskresshiy.1960.DVDRip_[New-team]_by_AVP_Studio.avi
Формат : AVI
Формат/Информация : Audio Video Interleave
Размер файла : 1,09 Гбайт
Продолжительность : 1 ч. 15 м.
Общий поток : 2072 Кбит/сек
Программа кодирования : VirtualDubMod 1.5.10.3 | www.virtualdub-fr.org || (build 2550/release)
Библиотека кодирования : VirtualDubMod build 2550/release

Видео
Идентификатор : 0
Формат : MPEG-4 Visual
Профиль формата : Advanced Simple@L5
Настройки формата : BVOP1 / Custom Matrix
Параметр BVOP формата : 1
Параметр QPel формата : Нет
Параметр GMC формата : Без точки перехода
Параметр матрицы формата : Выборочная
Идентификатор кодека : XVID
Идентификатор кодека/Подсказка : XviD
Продолжительность : 1 ч. 15 м.
Битрейт : 1870 Кбит/сек
Ширина : 704 пикселя
Высота : 528 пикселей
Соотношение сторон : 4:3
Частота кадров : 25,000 кадров/сек
Цветовое пространство : YUV
Субдискретизация насыщенности : 4:2:0
Битовая глубина : 8 бит
Тип развёртки : Прогрессивная
Метод сжатия : С потерями
Бит/(Пиксели*Кадры) : 0.201
Размер потока : 1008 Мбайт (90%)
Библиотека кодирования : XviD 73

Аудио
Идентификатор : 1
Формат : AC-3
Формат/Информация : Audio Coding 3
Идентификатор кодека : 2000
Продолжительность : 1 ч. 15 м.
Вид битрейта : Постоянный
Битрейт : 192 Кбит/сек
Каналы : 2 канала
Расположение каналов : Front: L R
Частота : 48,0 КГц
Частота кадров : 31,250 кадров/сек (1536 SPF)
Битовая глубина : 16 бит
Метод сжатия : С потерями
Размер потока : 103 Мбайт (9%)
Выравнивание : Разделение по промежуткам
Продолжительность промежутка : 40 мс. (1,00 видеокадр)
Время предзагрузки промежутка : 500 мс
pb.wtf



Скачать Трижды воскресший через торрент http://picplus.ru/img/1806/21/d515130b.png Скачать фильм Трижды воскресший через торрент бесплантно в хорошем качестве Описание:Возле маленького приволжского городка стоит на мертвом якоре "Орленок" - вышедший из строя буксир. У него славная история. В 1919 ... 5 10 1
Info! Золотая раздача, скачанное не засчитывается.
Торрент: Зарегистрирован [2018-06-21 08:47] · скачан: 17 раз
Статус: √ проверено
Размер: 1.09 GB
Как cкачать? Как скачать Трижды воскресший через торрент | qTorrent

% Раздел Тема Автор DL S | L
Кино СССР [ 1.09 GB ] Трижды воскресший [1960 СССР DVDRip-AVC от AVP Studio] AVP Studio Скачать
1 | 0


>> Регистрируемся здесь <<






Отзывы и комментарии о схеме читаем и пишем здесь: ---> Отзывы и комментарии о схеме

Новые благодарочки в телеграм довольных пользователей:
скриншот   скриншот   скриншот   скриншот   скриншот
    Дорогой пользователь! Огромная просьба, поблагодарите релизера, оцените раздачу и оставьте свои комментарий, если Вы скачали Трижды воскресший через торрент бесплатно! Внесите свою лепту в развитие PiratBit!
    Комментировать посты могут только пользователи прошедшие не сложную регистрацию
    Показать сообщения:    

    Трижды воскресший через торрент
    Скачать бесплатно Трижды воскресший
    Трижды воскресший скачать торрент
    Трижды воскресший смотреть онлайн
    Cкачать фильм Трижды воскресший бесплатно
    Трижды воскресший скачать торрент в хорошем качестве
    Трижды воскресший смотреть онлайн бесплатно в хорошем качестве


    Вы не можете начинать темы
    Вы не можете отвечать на сообщения
    Вы не можете редактировать свои сообщения
    Вы не можете удалять свои сообщения
    Вы не можете голосовать в опросах
    Вы не можете прикреплять файлы к сообщениям
    Вы можете скачивать файлы