Ссылка на приватное зеркало нашего сайта всего за 1$. Внимание количество ограничено!!!

2 сезон

iTunes

1 сезон

1

2 сезон

2 сезон

iTunes

1 сезон

RePack

30

Ultimate

ВАЖНО

ИГРА 18+

pack

RePack

MK11
pack

Забери бонус

RePack

jed

!!Акция!!

Alien_Rage

RePack

fifa19

RePack

Assassins Creed: Odyssey

RePack

NEED FOR SPEED™ PAYBACK

4 сезон

9 сезон

Бесстыжие 9 сезон

Все сериалы

все сериалы на PB.wtf

RePack

FAR CRY 5
  

Космическая станция 76 / Space Station 76 (Джек Плотник) [2014, Фантастика, драма, комедия, WEB-DL 1080p] [AMAZON Version] MVO [Лицензия / iTunes] pb.wtf

Космическая станция 76 через торрент pb.wtf

Размер: 4.05 GB | Добавлен: 2 года 5 мес. назад | Торрент скачан:157 раз
Скачать  

21-06-2018 09:20 Космическая станция 76 Скачать торрент  

Космическая станция 76 / Space Station 76
Год выпуска: 2014
Страна: США
Жанр: Фантастика, драма, комедия
Продолжительность: 01:34:52
Перевод: Профессиональный многоголосый | Лицензия / iTunes
Субтитры: английские

Режиссер: Джек Плотник

rating

В ролях:

Патрик Уилсон, Лив Тайлер, Мариса Кохлан, Мэтт Бомер, Джерри О`Коннелл, Кайли Роджерс, Кали Роча, Виктор Тогунде, Сэм Пэнкейк, Майкл Стоянов

Описание:

Джесика Марлоу, привлекательная капитан-лейтенант, которая прибывает на космическую станцию «Омега-76». Здесь она знакомится с членами своей новой команды, в состав которой входят: красавица-блондинка Мисти, испытывающая психологические проблемы и постоянно консультирующаяся с роботом-психотерапевтом; мастер Тэд, который занимается починкой всего сломанного; самолюбивый капитан Гленн и еще несколько человек, чье прибывание на станции также немало важно. Теперь лейтенанту предстоит не только найти общий язык со всеми этими людьми, но и выполнить вместе с ними важную миссию по спасению всего человечества...

Качество: WEB-DL 1080p | AMAZON Version
Формат: MKV

Видео: MPEG-4 AVC, 5084 Kбит/с, 1920x1080
Аудио#1: AC3, 6 ch, 384 Кбит/с | Rus
Аудио#2: EAC3, 6 ch, 640 Кбит/с | Eng
скриншот   скриншот   скриншот   скриншот  

Формат : Matroska
Версия формата : Version 2
Размер файла : 4,05 Гбайт
Продолжительность : 1 ч. 34 м.
Режим общего битрейта : Переменный
Общий поток : 6110 Кбит/сек
Название фильма : Space.Station.76.1080p.AMZN.WEB-DL.by.zzZGVvv
Дата кодирования : UTC 2018-06-21 07:11:22
Программа кодирования : mkvmerge v5.8.0 ('No Sleep / Pillow') built on Sep 2 2012 15:37:04
Библиотека кодирования : libebml v1.2.3 + libmatroska v1.3.0
Attachements : cover.jpg

Видео
Идентификатор : 1
Формат : AVC
Формат/Информация : Advanced Video Codec
Профиль формата : High@L4
Параметр CABAC формата : Да
Параметр ReFrames формата : 4 кадра
Идентификатор кодека : V_MPEG4/ISO/AVC
Продолжительность : 1 ч. 34 м.
Вид битрейта : Переменный
Битрейт : 4965 Кбит/сек
Максимальный битрейт : 15,0 Мбит/сек
Ширина : 1920 пикселей
Высота : 1080 пикселей
Соотношение сторон : 16:9
Режим частоты кадров : Постоянный
Частота кадров : 23,976 кадра/сек
Цветовое пространство : YUV
Субдискретизация насыщенности : 4:2:0
Битовая глубина : 8 бит
Тип развёртки : Прогрессивная
Бит/(Пиксели*Кадры) : 0.100
Размер потока : 3,29 Гбайт (81%)
Заголовок : Space.Station.76.1080p.AMZN.WEB-DL
Библиотека кодирования : x264 core 148 r2623 d5b2374
Настройки программы : cabac=1 / ref=4 / deblock=1:-1:-1 / analyse=0x3:0x133 / me=umh / subme=9 / psy=1 / psy_rd=1.00:0.15 / mixed_ref=1 / me_range=24 / chroma_me=1 / trellis=2 / 8x8dct=1 / cqm=0 / deadzone=21,11 / fast_pskip=1 / chroma_qp_offset=-3 / threads=34 / lookahead_threads=5 / sliced_threads=0 / nr=150 / decimate=1 / interlaced=0 / bluray_compat=0 / constrained_intra=0 / bframes=8 / b_pyramid=2 / b_adapt=2 / b_bias=0 / direct=3 / weightb=1 / open_gop=0 / weightp=2 / keyint=120 / keyint_min=61 / scenecut=0 / intra_refresh=0 / rc_lookahead=120 / rc=crf / mbtree=1 / crf=18.0 / qcomp=0.60 / qpmin=0 / qpmax=69 / qpstep=4 / vbv_maxrate=15000 / vbv_bufsize=31250 / crf_max=0.0 / nal_hrd=vbr / filler=0 / ip_ratio=1.40 / aq=3:1.00
Default : Да
Forced : Нет
Цветовой диапазон : Limited
Основные цвета : BT.709
Характеристики трансфера : BT.709
Коэффициенты матрицы : BT.709

Аудио #1
Идентификатор : 2
Формат : AC-3
Формат/Информация : Audio Coding 3
Расширение режима : CM (complete main)
Параметр Endianness формата : Big
Идентификатор кодека : A_AC3
Продолжительность : 1 ч. 34 м.
Вид битрейта : Постоянный
Битрейт : 384 Кбит/сек
Каналы : 6 каналов
Расположение каналов : Front: L C R, Side: L R, LFE
Частота : 48,0 КГц
Метод сжатия : С потерями
Размер потока : 261 Мбайт (6%)
Заголовок : MVO
Язык : Russian
Default : Да
Forced : Нет

Аудио #2
Идентификатор : 3
Формат : E-AC-3
Формат/Информация : Audio Coding 3
Параметр Endianness формата : Big
Идентификатор кодека : A_EAC3
Продолжительность : 1 ч. 34 м.
Вид битрейта : Постоянный
Битрейт : 640 Кбит/сек
Каналы : 6 каналов
Расположение каналов : Front: L C R, Side: L R, LFE
Частота : 48,0 КГц
Метод сжатия : С потерями
Размер потока : 434 Мбайт (10%)
Язык : English
Default : Нет
Forced : Нет

Текст #1
Идентификатор : 4
Формат : UTF-8
Идентификатор кодека : S_TEXT/UTF8
Идентификатор кодека/Информация : UTF-8 Plain Text
Язык : English
Default : Нет
Forced : Нет

Текст #2
Идентификатор : 5
Формат : UTF-8
Идентификатор кодека : S_TEXT/UTF8
Идентификатор кодека/Информация : UTF-8 Plain Text
Заголовок : SDH
Язык : English
Default : Нет
Forced : Нет

pb.wtf



Скачать Космическая станция 76 через торрент http://i65.fastpic.ru/big/2014/0929/6f/e5b685219670c5ff7c3d2792ade9fd6f.jpg Скачать фильм Космическая станция 76 через торрент бесплантно в хорошем качестве Описание: Джесика Марлоу, привлекательная капитан-лейтенант, которая прибывает на космическую станцию «Омега-76». Здесь она знакомится с ... 8.4 10 7
Торрент: Зарегистрирован [2018-06-21 09:20] · скачан: 157 раз
Статус: √ проверено
Размер: 4.05 GB
Как cкачать? Как скачать Космическая станция 76 через торрент | qTorrent

% Раздел Тема Автор DL S | L
Фильмы 2014 [DVDrip, WEB-DLRip, HDrip] [ 1.37 GB ] Космическая станция 76 / Space Station 76 [2014 WEB-DLRip MVO] GEKADOL Скачать
1 | 0
Фильмы (WEB-DL 720p, 1080p) [ 2.89 GB ] Космическая станция 76 / Space Station 76 WEB-DL 720p / DEVI Скачать
1 | 0

28-11-2019 20:33  

Отключить всю рекламу на сайте

22-06-2018 07:52 Космическая станция 76 Скачать торрент  

глянул трейлер - как будто все серии какого-нибудь Дикого ангела пересмотрел - концентрация любовных соплей на секунду экранного времени просто зашкаливает)) это просто мело-мело-мелодрама какая-то))pb.wtf



    Дорогой пользователь! Огромная просьба, поблагодарите релизера, оцените раздачу и оставьте свои комментарий, если Вы скачали Космическая станция 76 через торрент бесплатно! Внесите свою лепту в развитие PiratBit!
    Комментировать посты могут только пользователи прошедшие не сложную регистрацию
    Показать сообщения:    

    Космическая станция 76 через торрент
    Скачать бесплатно Космическая станция 76
    Космическая станция 76 скачать торрент
    Космическая станция 76 смотреть онлайн
    Cкачать фильм Космическая станция 76 бесплатно
    Космическая станция 76 скачать торрент в хорошем качестве
    Космическая станция 76 смотреть онлайн бесплатно в хорошем качестве


    Вы не можете начинать темы
    Вы не можете отвечать на сообщения
    Вы не можете редактировать свои сообщения
    Вы не можете удалять свои сообщения
    Вы не можете голосовать в опросах
    Вы не можете прикреплять файлы к сообщениям
    Вы можете скачивать файлы