Ссылка на приватное зеркало всего за 1$. Внимание количество ограничено!!!

OK

1+1

iTunes

мы

OK

1

WEB-DLRip

Джокер

Пифагор

Ведьмак / The Witcher сериал

iTunes

ПШазам

ОК

Оно 2

iTunes

30
pack

Вам бонус

ВАЖНО

!!Акция!!

Alien_RageХит недели

RePack

Resident Evil 21

ИГРА 18+

pack

RePack

jed

RePack

fifa19

RePack

Assassins Creed: Odyssey

RePack

NEED FOR SPEED™ PAYBACK

4 сезон

9 сезон

Бесстыжие 9 сезон

Все сериалы

все сериалы на PB.wtf

RePack

FAR CRY 5
  

Плакучая ива / Сезон: 1 / Серии: 1-12 из 12 (Феликс Герчиков) [2018 , мелодрама, HDTV 1080p] Не требуется [Русский] R.G.Generalfilm pb.wtf

Плакучая ива через торрент pb.wtf

Размер: 19.61 GB | Добавлен: 1 год 7 мес. назад | Торрент скачан:71 раз
Скачать  

21-06-2018 13:14 Плакучая ива Скачать торрент  


Плакучая ива


Год выпуска: 2018

Страна: Россия
Жанр: мелодрама
Продолжительность: 00:33:29
Перевод: Не требуется [Русский]
Режиссер: Феликс Герчиков
В ролях:

Анна Снаткина (Мария Шувалова), Борис Хвошнянский (Переверзев), Анна Лутцева (Анастасия Уварова), Александр Андриенко (Ярцев), Ольга Сумская (жена Ярцева), Кирилл Полухин (Владимир Константинович Дропеко, сыщик), Михаил Гаврилов (Кирилл), Дмитрий Фрид (Родецкий, военный врач в отставке), Игнат Акрачков (Аленин), Игорь Денисов (Петр Данилович Уваров), Виталий Герасимов (Максим), Анна Носатова (Юлия)
Описание:
Красино. 1914 год. В аристократической среде происходит убийство известной актрисы Марии Александровны Шуваловой. Московский следователь Владимир Константинович Драпеко начинает следствие. Каждое расследование для него - это своего рода театр, где каждому подозреваемому отводится своя роль.

Качество: HDTV 1080p
Формат: MKV
Видео кодек: AVC
Аудио кодек: AC3
Видео: AVC, 1920x1080 (16:9), 7050 kbps, 25 fps, 0,136 bpp
Аудио: AC3 / 2.0 / 48 kHz / 192 kbps /
General
Unique ID : 240705503903569906588063147935871257673 (0xB516319B3780264396FF1B6FDAD7CC49)
Complete name : E:\запись с тв\Plakuchaya iva 2018.HDTV 1080p.R.G.Generalfilm\Plakuchaya iva.s01.e01.2018.HDTV 1080p.by.White Smoke.R.G.Generalfilm.mkv
Format : Matroska
Format version : Version 2
File size : 1.69 GiB
Duration : 33 min
Overall bit rate mode : Constant
Overall bit rate : 7 238 kb/s
Movie name : Plakuchaya iva.s01.e01.2018.HDTV 1080p.by.White Smoke.R.G.Generalfilm.mkv
Encoded date : UTC 2018-06-21 12:38:50
Writing application : mkvmerge v7.6.0 ('Garden of Dreams') 32bit built on Feb 11 2015 00:18:47
Writing library : libebml v1.3.1 + libmatroska v1.4.2

Video
ID : 1
Format : AVC
Format/Info : Advanced Video Codec
Format profile : High@L4.1
Format settings, CABAC : Yes
Format settings, ReFrames : 3 frames
Codec ID : V_MPEG4/ISO/AVC
Duration : 33 min
Bit rate mode : Constant
Bit rate : 7 051 kb/s
Width : 1 920 pixels
Height : 1 080 pixels
Display aspect ratio : 16:9
Frame rate mode : Constant
Frame rate : 25.000 FPS
Standard : PAL
Color space : YUV
Chroma subsampling : 4:2:0
Bit depth : 8 bits
Scan type : Progressive
Bits/(Pixel*Frame) : 0.136
Stream size : 1.61 GiB (95%)
Default : Yes
Forced : No
Color range : Limited
Color primaries : BT.709
Transfer characteristics : BT.709
Matrix coefficients : BT.709

Audio
ID : 2
Format : AC-3
Format/Info : Audio Coding 3
Mode extension : CM (complete main)
Format settings, Endianness : Big
Codec ID : A_AC3
Duration : 33 min
Bit rate mode : Constant
Bit rate : 192 kb/s
Channel(s) : 2 channels
Channel positions : Front: L R
Sampling rate : 48.0 kHz
Frame rate : 31.250 FPS (1536 spf)
Compression mode : Lossy
Stream size : 46.0 MiB (3%)
Default : Yes
Forced : No
Внимание! Раздача ведётся путём добавления новых серий; при каждом добавлении создаётся новый торрент.
Чтобы начать докачку новой серии, пользователям необходимо сделать следующее:
1. Остановить скачивание;
2. Удалить старый торрент у себя из клиента (старые серии удалять не надо);
3. Скачать новый торрент и запустить его у себя в клиенте вместо старого, при этом указать клиенту путь в старую папку куда и должно происходить скачивание новых серий. Ваш клиент при этом должен произвести хеширование (проверку) старой папки и будет докачивать только те серии, которых у вас ещё нет. Старые серии при этом не удаляются, а продолжают раздаваться! Eсли вы уже удалили старые серии, то предотвратить повторную закачку старых серий можно, отжав галочку в соответствующих местах при запуске нового торрента.
pb.wtf



Скачать Плакучая ива через торрент http://interhit.org/img/2018-05/27/95e0rpzgd7ieqwngygkarjw3v.gif Скачать фильм Плакучая ива через торрент бесплантно в хорошем качестве Описание: Красино. 1914 год. В аристократической среде происходит убийство известной актрисы Марии Александровны Шуваловой. Московский ... 5 10 1
Info! Золотая раздача, скачанное не засчитывается.
Торрент: Зарегистрирован [2018-06-23 12:42] · скачан: 71 раз
Статус: √ проверено
Размер: 19.61 GB
Как cкачать? Как скачать Плакучая ива через торрент | qTorrent

28-11-2019 20:33  

Отключить всю рекламу на сайте

    Дорогой пользователь! Огромная просьба, поблагодарите релизера, оцените раздачу и оставьте свои комментарий, если Вы скачали Плакучая ива через торрент бесплатно! Внесите свою лепту в развитие PiratBit!
    Комментировать посты могут только пользователи прошедшие не сложную регистрацию
    Показать сообщения:    

    Плакучая ива через торрент
    Скачать бесплатно Плакучая ива
    Плакучая ива скачать торрент
    Плакучая ива смотреть онлайн
    Cкачать фильм Плакучая ива бесплатно
    Плакучая ива скачать торрент в хорошем качестве
    Плакучая ива смотреть онлайн бесплатно в хорошем качестве


    Вы не можете начинать темы
    Вы не можете отвечать на сообщения
    Вы не можете редактировать свои сообщения
    Вы не можете удалять свои сообщения
    Вы не можете голосовать в опросах
    Вы не можете прикреплять файлы к сообщениям
    Вы можете скачивать файлы