Ссылка на приватное зеркало всего за 1$. Внимание количество ограничено!!!

OK

1+1

iTunes

мы

OK

1

WEB-DLRip

Джокер

Пифагор

Ведьмак / The Witcher сериал

iTunes

ПШазам

ОК

Оно 2

iTunes

30
pack

Вам бонус

ВАЖНО

!!Акция!!

Alien_RageХит недели

RePack

Resident Evil 21

ИГРА 18+

pack

RePack

jed

RePack

fifa19

RePack

Assassins Creed: Odyssey

RePack

NEED FOR SPEED™ PAYBACK

4 сезон

9 сезон

Бесстыжие 9 сезон

Все сериалы

все сериалы на PB.wtf

RePack

FAR CRY 5
  

Правление тьмы / Darkness Reigns (Эндрю П. Джонс) [2017, ужасы, WEB-DLRip] MVO ["Синема УС"] pb.wtf

Правление тьмы через торрент pb.wtf

Размер: 2.54 GB | Добавлен: 1 год 7 мес. назад | Торрент скачан:64 раза
Скачать  

22-06-2018 13:20 Правление тьмы Скачать торрент  

Правление тьмы / Darkness ReignsГод выпуска: 2017
Страна: США
Жанр: ужасы
Продолжительность: 01:17:24
Перевод: Любительский (многоголосый) | "Синема УС"
Субтитры: отсутствуют

Режиссер: Эндрю П. Джонс

rating

В ролях:

Захари Мурен, Линара Вашингтон, Каспер Ван Дин, Питер Майер, Форд Фантер, Дженнифер Герт, Джеймс Паккард, Воздушная Николь, Мэтт Коннор, Ванесса Лейнани

Описание:

Съемочная группа фильма ужасов выбрала для съемок в отель, где по слухам имеются приведения. Туда же приезжает команда снимать дополнительные материалы для DVD, когда на площадке начинается настоящий аттракцион ужасов.

Качество: WEB-DL 720p
Формат: MKV

Видео: h.264, 4 310 kb/s, 1280x720
Аудио: Русский (AC3, 2 ch, 384 Кбит/с)
скриншот  скриншот  скриншот  

Общее
Уникальный идентификатор : 217459971960333475430969034343805460791 (0xA39944654788DDD99F46F0006785A137)
Полное имя : D:\Darkness.Reigns.2017.P.WEB-DL.72Op_KOSHARA.mkv
Формат : Matroska
Версия формата : Version 2
Размер файла : 2,54 Гбайт
Продолжительность : 1 ч. 17 м.
Режим общего битрейта : Переменный
Общий поток : 4695 Кбит/сек
Дата кодирования : UTC 2018-06-20 18:42:47
Программа кодирования : mkvmerge v8.3.0 ('Over the Horizon') 64bit
Библиотека кодирования : libebml v1.3.1 + libmatroska v1.4.2

Видео
Идентификатор : 1
Формат : AVC
Формат/Информация : Advanced Video Codec
Профиль формата : High@L4.1
Параметр CABAC формата : Да
Параметр RefFrames формата : 4 кадра
Идентификатор кодека : V_MPEG4/ISO/AVC
Продолжительность : 1 ч. 17 м.
Вид битрейта : Переменный
Битрейт : 4310 Кбит/сек
Максимальный битрейт : 5000 Кбит/сек
Ширина : 1280 пикселей
Высота : 720 пикселей
Соотношение сторон : 16:9
Режим частоты кадров : Постоянный
Частота кадров : 23,976 (24000/1001) кадра/сек
Стандарт вещания : Component
Цветовое пространство : YUV
Субдискретизация насыщенности : 4:2:0
Битовая глубина : 8 бит
Тип развёртки : Прогрессивная
Бит/(Пиксели*Кадры) : 0.191
Размер потока : 2,28 Гбайт (90%)
Default : Да
Forced : Нет
Цветовой диапазон : Limited
Основные цвета : BT.709
Характеристики трансфера : BT.709
Коэффициенты матрицы : BT.709

Аудио
Идентификатор : 2
Формат : AC-3
Формат/Информация : Audio Coding 3
Расширение режима : CM (complete main)
Параметр Endianness формата : Big
Идентификатор кодека : A_AC3
Продолжительность : 1 ч. 17 м.
Вид битрейта : Постоянный
Битрейт : 384 Кбит/сек
Каналы : 2 канала
Расположение каналов : Front: L R
Частота : 48,0 КГц
Частота кадров : 31,250 кадров/сек (1536 spf)
Метод сжатия : С потерями
Размер потока : 213 Мбайт (8%)
Default : Да
Forced : Нет

pb.wtf



Скачать Правление тьмы через торрент https://d.radikal.ru/d37/1806/35/be03c0fa8faf.jpg Скачать фильм Правление тьмы через торрент бесплантно в хорошем качестве Описание: Съемочная группа фильма ужасов выбрала для съемок в отель, где по слухам имеются приведения. Туда же приезжает команда снимать ... 7.8 10 4
Торрент: Зарегистрирован [2018-06-22 13:20] · скачан: 64 раз
Статус: T временная
Размер: 2.54 GB
Как cкачать? Как скачать Правление тьмы через торрент | qTorrent

% Раздел Тема Автор DL S | L
T Фильмы (мультфильмы) cо спонсором показа (Новинки AVI/MKV) [ 1.37 GB ] Правление тьмы / Darkness Reigns [2017 WEB-DLRip] MVO ["Синема УС"] bober100 Скачать
1 | 0

28-11-2019 20:33  

Отключить всю рекламу на сайте

23-06-2018 18:21 Правление тьмы Скачать торрент  

Смотрибельно.pb.wtf



    Дорогой пользователь! Огромная просьба, поблагодарите релизера, оцените раздачу и оставьте свои комментарий, если Вы скачали Правление тьмы через торрент бесплатно! Внесите свою лепту в развитие PiratBit!
    Комментировать посты могут только пользователи прошедшие не сложную регистрацию
    Показать сообщения:    

    Правление тьмы через торрент
    Скачать бесплатно Правление тьмы
    Правление тьмы скачать торрент
    Правление тьмы смотреть онлайн
    Cкачать фильм Правление тьмы бесплатно
    Правление тьмы скачать торрент в хорошем качестве
    Правление тьмы смотреть онлайн бесплатно в хорошем качестве


    Вы не можете начинать темы
    Вы не можете отвечать на сообщения
    Вы не можете редактировать свои сообщения
    Вы не можете удалять свои сообщения
    Вы не можете голосовать в опросах
    Вы не можете прикреплять файлы к сообщениям
    Вы можете скачивать файлы