Ссылка на приватное зеркало всего за 1$. Внимание количество ограничено!!!

OK

1+1

iTunes

мы

OK

1

WEB-DLRip

Джокер

Пифагор

Ведьмак / The Witcher сериал

Лицензия

ПШазам

ОК

Оно 2

iTunes

30
pack

Вам бонус

ВАЖНО

!!Акция!!

Alien_RageХит недели

RePack

Resident Evil 21

ИГРА 18+

pack

RePack

jed

!!Акция!!

Alien_Rage

RePack

fifa19

RePack

Assassins Creed: Odyssey

RePack

NEED FOR SPEED™ PAYBACK

4 сезон

9 сезон

Бесстыжие 9 сезон

Все сериалы

все сериалы на PB.wtf

RePack

FAR CRY 5
  

Мир Триасового периода / Triassic World (Дилан Вокс) [2018, Ужасы, фантастика, боевик, WEB-DL 720p] MVO ["Синема УС"] pb.wtf

Мир Триасового периода через торрент pb.wtf

Качают: 1 [ 0 KB/s ]
Размер: 3.1 GB | Добавлен: 1 год 6 мес. назад | Торрент скачан:99 раз
Скачать  

22-06-2018 18:06 Мир Триасового периода Скачать торрент  

Мир Триасового периода / Triassic WorldГод выпуска: 2018
Страна: США
Жанр: Ужасы, фантастика, боевик
Продолжительность: 01:31:16
Перевод: Любительский (многоголосый) | "Синема УС"
Субтитры: отсутствуют

Режиссер: Дилан Вокс

rating

В ролях:

Джоэль Берти, Шарон Дезире, Грег Фурман, Джозеф Майкл Харрис, Даррин Хичкок, Жермен Холлман, Полина Лоран, Дженнифер Левинсон, Корбин Майлз, Брендан Петриццо

Описание:

Секретная лаборатория посреди мегаполиса выращивает динозавров, чтобы использовать их органы для трансплантации людям. Для этого ящерам предварительно вводятся человеческие гормоны и протеины. Но всё идёт не так, когда инъекции начинают оказывать неожиданный побочный эффект.

Качество: WEB-DL 720p
Формат: MKV

Видео: h.264, 4 477 kb/s, 1280x718
Аудио#1: Русский, (AC3, 2 ch, 384 Кбит/с)
скриншот  скриншот  скриншот  

Общее
Уникальный идентификатор : 201801281592408578454930637358991930658 (0x97D1835ABF7A8E57B03EB0A62603F522)
Полное имя : D:\Triassic.World.2O17.P.WEB-DL.72Op_KOSHARA.mkv
Формат : Matroska
Версия формата : Version 2
Размер файла : 3,10 Гбайт
Продолжительность : 1 ч. 31 м.
Режим общего битрейта : Переменный
Общий поток : 4863 Кбит/сек
Дата кодирования : UTC 2018-06-20 16:38:44
Программа кодирования : mkvmerge v8.3.0 ('Over the Horizon') 64bit
Библиотека кодирования : libebml v1.3.1 + libmatroska v1.4.2

Видео
Идентификатор : 1
Формат : AVC
Формат/Информация : Advanced Video Codec
Профиль формата : High@L4.1
Параметр CABAC формата : Да
Параметр RefFrames формата : 4 кадра
Идентификатор кодека : V_MPEG4/ISO/AVC
Продолжительность : 1 ч. 31 м.
Вид битрейта : Переменный
Битрейт : 4477 Кбит/сек
Максимальный битрейт : 5000 Кбит/сек
Ширина : 1280 пикселей
Высота : 718 пикселей
Соотношение сторон : 16:9
Режим частоты кадров : Постоянный
Частота кадров : 23,976 (24000/1001) кадра/сек
Стандарт вещания : Component
Цветовое пространство : YUV
Субдискретизация насыщенности : 4:2:0
Битовая глубина : 8 бит
Тип развёртки : Прогрессивная
Бит/(Пиксели*Кадры) : 0.199
Размер потока : 2,79 Гбайт (90%)
Default : Да
Forced : Нет
Цветовой диапазон : Limited
Основные цвета : BT.709
Характеристики трансфера : BT.709
Коэффициенты матрицы : BT.709

Аудио
Идентификатор : 2
Формат : AC-3
Формат/Информация : Audio Coding 3
Расширение режима : CM (complete main)
Параметр Endianness формата : Big
Идентификатор кодека : A_AC3
Продолжительность : 1 ч. 31 м.
Вид битрейта : Постоянный
Битрейт : 384 Кбит/сек
Каналы : 2 канала
Расположение каналов : Front: L R
Частота : 48,0 КГц
Частота кадров : 31,250 кадров/сек (1536 spf)
Метод сжатия : С потерями
Размер потока : 251 Мбайт (8%)
Default : Да
Forced : Нет

pb.wtf



Скачать Мир Триасового периода через торрент https://a.radikal.ru/a21/1806/20/ab730c93af41.jpg Скачать фильм Мир Триасового периода через торрент бесплантно в хорошем качестве Описание: Секретная лаборатория посреди мегаполиса выращивает динозавров, чтобы использовать их органы для трансплантации людям. Для этого ... 5.9 10 11
Торрент: Зарегистрирован [2018-06-22 18:06] · скачан: 99 раз
Статус: T временная
Размер: 3.1 GB
Как cкачать? Как скачать Мир Триасового периода через торрент | qTorrent

% Раздел Тема Автор DL S | L
T Фильмы (мультфильмы) cо спонсором показа (Новинки AVI/MKV) [ 1.37 GB ] Мир Триасового периода / Triassic World [2018 WEB-DLRip] MVO ["Синема УС"] bober100 Скачать
1 | 0

28-11-2019 20:33  

Отключить всю рекламу на сайте

22-06-2018 18:29 Мир Триасового периода Скачать торрент  

на скринах--самые опасные динозавры pb.wtf



22-06-2018 19:25 Мир Триасового периода Скачать торрент  

jokerbooy писал(а):

на скринах--самые опасные динозавры

я со стула упал от смеха .ну и комент.pb.wtf



23-06-2018 00:30 Мир Триасового периода Скачать торрент  

афигеть. нафиг на свиней размениваться, давай вырастим печень размером с холодильник, а потом придумаем как ее извлечь из динозавра))pb.wtf



23-06-2018 08:32 Мир Триасового периода Скачать торрент  

Я не понимаю режиссеров, штампующих это ! Какую колоссальную прибыль могут они получить? Если работать, то только на имя, на достижения в кинематографе. А с такими картинами ему только детей пугатьpb.wtf



24-06-2018 11:29 Мир Триасового периода Скачать торрент  

на 2 скрине - Винт Дроссель!

Zhaslon писал(а):

Я не понимаю режиссеров, штампующих это ! Какую колоссальную прибыль могут они получить? Если работать, то только на имя, на достижения в кинематографе. А с такими картинами ему только детей пугать

Тот же самый смысл, что и у нас. Или вы считаете, что в "Забугории" только одни хиты выпускают?:)))pb.wtf



    Дорогой пользователь! Огромная просьба, поблагодарите релизера, оцените раздачу и оставьте свои комментарий, если Вы скачали Мир Триасового периода через торрент бесплатно! Внесите свою лепту в развитие PiratBit!
    Комментировать посты могут только пользователи прошедшие не сложную регистрацию
    Показать сообщения:    

    Мир Триасового периода через торрент
    Скачать бесплатно Мир Триасового периода
    Мир Триасового периода скачать торрент
    Мир Триасового периода смотреть онлайн
    Cкачать фильм Мир Триасового периода бесплатно
    Мир Триасового периода скачать торрент в хорошем качестве
    Мир Триасового периода смотреть онлайн бесплатно в хорошем качестве


    Вы не можете начинать темы
    Вы не можете отвечать на сообщения
    Вы не можете редактировать свои сообщения
    Вы не можете удалять свои сообщения
    Вы не можете голосовать в опросах
    Вы не можете прикреплять файлы к сообщениям
    Вы можете скачивать файлы