Ссылка на приватное зеркало всего за 1$. Внимание количество ограничено!!!

OK

1+1

iTunes

мы

OK

1

WEB-DLRip

Джокер

Пифагор

Ведьмак / The Witcher сериал

Лицензия

ПШазам

ОК

Оно 2

iTunes

30
pack

Вам бонус

ВАЖНО

!!Акция!!

Alien_RageХит недели

RePack

Resident Evil 21

ИГРА 18+

pack

RePack

jed

RePack

fifa19

RePack

Assassins Creed: Odyssey

RePack

NEED FOR SPEED™ PAYBACK

4 сезон

9 сезон

Бесстыжие 9 сезон

Все сериалы

все сериалы на PB.wtf

RePack

FAR CRY 5
  

Никудышный вальс / Two-Bit Waltz (Клара Мамет) [2014, драма, комедия, семейный, WEB-DL 720p] MVO ["Синема УС"] pb.wtf

Никудышный вальс через торрент pb.wtf

Размер: 2.66 GB | Добавлен: 1 год 7 мес. назад | Торрент скачан:8 раз
Скачать  

22-06-2018 19:25 Никудышный вальс Скачать торрент  

Никудышный вальс / Two-Bit WaltzГод выпуска: 2014
Страна: США
Жанр: драма, комедия, семейный
Продолжительность: 01:21:44
Перевод: Любительский (многоголосый) | "Синема УС"
Субтитры: отсутствуют

Режиссер: Клара Мамет

rating

В ролях:

Клара Мамет, Уильям Х. Мэйси, Джаред Гилман, Ребекка Пиджон, Элла Дершовиц, Джон Пирруччелло, Дэвид Пэймер, Мэтт Мэллой, Мэтью О Лири, Уиллоу Хейл

Описание:

Неудачи в школе, потеря лучшей подруги, разбитое сердце и недостаток вдохновения бросают Мод в пучину подростковых ошибок.

Качество: WEB-DL 720p
Формат: MKV

Видео: h.264, 4 280 kb/s, 1280x720
Аудио#1: Русский, (AC3, 2 ch, 384 Кбит/с)
скриншот  скриншот  скриншот  

Общее
Уникальный идентификатор : 210239408136697562713909513031952786737 (0x9E2AA31D0DB37B0ABFF34E2B2DE66531)
Полное имя : D:\Tw-o-Bit.-Wa-ltz.2014.P.WEB-DL.72Op_KOSHARA.mkv
Формат : Matroska
Версия формата : Version 2
Размер файла : 2,66 Гбайт
Продолжительность : 1 ч. 21 м.
Режим общего битрейта : Переменный
Общий поток : 4666 Кбит/сек
Дата кодирования : UTC 2018-06-20 15:46:51
Программа кодирования : mkvmerge v8.3.0 ('Over the Horizon') 64bit
Библиотека кодирования : libebml v1.3.1 + libmatroska v1.4.2

Видео
Идентификатор : 1
Формат : AVC
Формат/Информация : Advanced Video Codec
Профиль формата : High@L4.1
Параметр CABAC формата : Да
Параметр RefFrames формата : 4 кадра
Идентификатор кодека : V_MPEG4/ISO/AVC
Продолжительность : 1 ч. 21 м.
Вид битрейта : Переменный
Битрейт : 4280 Кбит/сек
Максимальный битрейт : 5000 Кбит/сек
Ширина : 1280 пикселей
Высота : 720 пикселей
Соотношение сторон : 16:9
Режим частоты кадров : Постоянный
Частота кадров : 23,976 (24000/1001) кадра/сек
Стандарт вещания : Component
Цветовое пространство : YUV
Субдискретизация насыщенности : 4:2:0
Битовая глубина : 8 бит
Тип развёртки : Прогрессивная
Бит/(Пиксели*Кадры) : 0.190
Размер потока : 2,39 Гбайт (90%)
Default : Да
Forced : Нет
Цветовой диапазон : Limited
Основные цвета : BT.709
Характеристики трансфера : BT.709
Коэффициенты матрицы : BT.709

Аудио
Идентификатор : 2
Формат : AC-3
Формат/Информация : Audio Coding 3
Расширение режима : CM (complete main)
Параметр Endianness формата : Big
Идентификатор кодека : A_AC3
Продолжительность : 1 ч. 21 м.
Вид битрейта : Постоянный
Битрейт : 384 Кбит/сек
Каналы : 2 канала
Расположение каналов : Front: L R
Частота : 48,0 КГц
Частота кадров : 31,250 кадров/сек (1536 spf)
Метод сжатия : С потерями
Размер потока : 225 Мбайт (8%)
Default : Да
Forced : Нет

pb.wtf



Скачать Никудышный вальс через торрент https://d.radikal.ru/d06/1806/d0/18d70a9d53e3.jpg Скачать фильм Никудышный вальс через торрент бесплантно в хорошем качестве Описание: Неудачи в школе, потеря лучшей подруги, разбитое сердце и недостаток вдохновения бросают Мод в пучину подростковых ... 10 10 1
Торрент: Зарегистрирован [2018-06-22 19:25] · скачан: 8 раз
Статус: T временная
Размер: 2.66 GB
Как cкачать? Как скачать Никудышный вальс через торрент | qTorrent

% Раздел Тема Автор DL S | L
T Фильмы (мультфильмы) cо спонсором показа (Новинки AVI/MKV) [ 1.36 GB ] Никудышный вальс / Two-Bit Waltz [2014 WEB-DLRip] MVO ["Синема УС"] bober100 Скачать
1 | 0

28-11-2019 20:33  

Отключить всю рекламу на сайте

    Дорогой пользователь! Огромная просьба, поблагодарите релизера, оцените раздачу и оставьте свои комментарий, если Вы скачали Никудышный вальс через торрент бесплатно! Внесите свою лепту в развитие PiratBit!
    Комментировать посты могут только пользователи прошедшие не сложную регистрацию
    Показать сообщения:    

    Никудышный вальс через торрент
    Скачать бесплатно Никудышный вальс
    Никудышный вальс скачать торрент
    Никудышный вальс смотреть онлайн
    Cкачать фильм Никудышный вальс бесплатно
    Никудышный вальс скачать торрент в хорошем качестве
    Никудышный вальс смотреть онлайн бесплатно в хорошем качестве


    Вы не можете начинать темы
    Вы не можете отвечать на сообщения
    Вы не можете редактировать свои сообщения
    Вы не можете удалять свои сообщения
    Вы не можете голосовать в опросах
    Вы не можете прикреплять файлы к сообщениям
    Вы можете скачивать файлы