Ссылка на приватное зеркало всего за 1$. Внимание количество ограничено!!!

OK

1+1

iTunes

мы

OK

1

WEB-DLRip

Джокер

Пифагор

Ведьмак / The Witcher сериал

iTunes

ПШазам

ОК

Оно 2

iTunes

30
pack

Вам бонус

ВАЖНО

!!Акция!!

Alien_RageХит недели

RePack

Resident Evil 21

ИГРА 18+

pack

RePack

jed

RePack

fifa19

RePack

Assassins Creed: Odyssey

RePack

NEED FOR SPEED™ PAYBACK

4 сезон

9 сезон

Бесстыжие 9 сезон

Все сериалы

все сериалы на PB.wtf

RePack

FAR CRY 5
  

Болезнь в воскресенье / La enfermedad del domingo / Sunday's Illness (Рамон Саласар) [2018, драма, WEB-DL 720p] MVO ["Синема УС"] pb.wtf

Болезнь в воскресенье через торрент pb.wtf

Размер: 3.76 GB | Добавлен: 1 год 7 мес. назад | Торрент скачан:10 раз
Скачать  

22-06-2018 19:46 Болезнь в воскресенье Скачать торрент  

Болезнь в воскресенье / La enfermedad del domingo / Sunday's IllnessГод выпуска: 2018
Страна: Испания
Жанр: драма
Продолжительность: 01:55:12
Перевод: Любительский (многоголосый) | "Синема УС"
Субтитры: отсутствуют

Режиссер: Рамон Саласар

rating

В ролях:

Барбара Ленни, Суси Санчес, Грета Фернандез, Бруна Гонсалес, Дэвид Камменос, Ришар Боренже, Мигель Анхель Сола, Мануэль Кастилло, Има Ранедо, Моника Ван Кампен

Описание:

Немолодая женщина из высшего общества получает неожиданный визит от родной дочери, которую она бросила больше тридцати лет назад. Та попросила её только об одном: провести с ней вместе десять дней.

Качество: WEB-DL 720p
Формат: MKV

Видео: h.264, 4288 kb/s, 1280x690
Аудио: Русский, (AC3, 2 ch, 384 Кбит/с)
скриншот  скриншот  скриншот  

Общее
Уникальный идентификатор : 220497275418449818058126640609602775905 (0xA5E23B0490DAF8DDB13964F2DE6B2B61)
Полное имя : D:\Sundays.Illness.2018.P.WEB-DL.72Op_KOSHARA.mkv
Формат : Matroska
Версия формата : Version 2
Размер файла : 3,76 Гбайт
Продолжительность : 1 ч. 55 м.
Режим общего битрейта : Переменный
Общий поток : 4674 Кбит/сек
Дата кодирования : UTC 2018-06-20 11:04:43
Программа кодирования : mkvmerge v8.3.0 ('Over the Horizon') 64bit
Библиотека кодирования : libebml v1.3.1 + libmatroska v1.4.2

Видео
Идентификатор : 1
Формат : AVC
Формат/Информация : Advanced Video Codec
Профиль формата : High@L4.1
Параметр CABAC формата : Да
Параметр RefFrames формата : 4 кадра
Идентификатор кодека : V_MPEG4/ISO/AVC
Продолжительность : 1 ч. 55 м.
Вид битрейта : Переменный
Битрейт : 4288 Кбит/сек
Максимальный битрейт : 5000 Кбит/сек
Ширина : 1280 пикселей
Высота : 690 пикселей
Соотношение сторон : 1,85:1
Режим частоты кадров : Постоянный
Частота кадров : 23,976 (24000/1001) кадра/сек
Стандарт вещания : Component
Цветовое пространство : YUV
Субдискретизация насыщенности : 4:2:0
Битовая глубина : 8 бит
Тип развёртки : Прогрессивная
Бит/(Пиксели*Кадры) : 0.198
Размер потока : 3,38 Гбайт (90%)
Default : Да
Forced : Нет
Цветовой диапазон : Limited
Основные цвета : BT.709
Характеристики трансфера : BT.709
Коэффициенты матрицы : BT.709

Аудио
Идентификатор : 2
Формат : AC-3
Формат/Информация : Audio Coding 3
Расширение режима : CM (complete main)
Параметр Endianness формата : Big
Идентификатор кодека : A_AC3
Продолжительность : 1 ч. 55 м.
Вид битрейта : Постоянный
Битрейт : 384 Кбит/сек
Каналы : 2 канала
Расположение каналов : Front: L R
Частота : 48,0 КГц
Частота кадров : 31,250 кадров/сек (1536 spf)
Метод сжатия : С потерями
Размер потока : 316 Мбайт (8%)
Default : Да
Forced : Нет

pb.wtf



Скачать Болезнь в воскресенье через торрент https://d.radikal.ru/d29/1806/6f/b227485bef1d.jpg Скачать фильм Болезнь в воскресенье через торрент бесплантно в хорошем качестве Описание: Немолодая женщина из высшего общества получает неожиданный визит от родной дочери, которую она бросила больше тридцати лет назад. ... 10 10 2
Торрент: Зарегистрирован [2018-06-22 19:46] · скачан: 10 раз
Статус: T временная
Размер: 3.76 GB
Как cкачать? Как скачать Болезнь в воскресенье через торрент | qTorrent

28-11-2019 20:33  

Отключить всю рекламу на сайте

    Дорогой пользователь! Огромная просьба, поблагодарите релизера, оцените раздачу и оставьте свои комментарий, если Вы скачали Болезнь в воскресенье через торрент бесплатно! Внесите свою лепту в развитие PiratBit!
    Комментировать посты могут только пользователи прошедшие не сложную регистрацию
    Показать сообщения:    

    Болезнь в воскресенье через торрент
    Скачать бесплатно Болезнь в воскресенье
    Болезнь в воскресенье скачать торрент
    Болезнь в воскресенье смотреть онлайн
    Cкачать фильм Болезнь в воскресенье бесплатно
    Болезнь в воскресенье скачать торрент в хорошем качестве
    Болезнь в воскресенье смотреть онлайн бесплатно в хорошем качестве


    Вы не можете начинать темы
    Вы не можете отвечать на сообщения
    Вы не можете редактировать свои сообщения
    Вы не можете удалять свои сообщения
    Вы не можете голосовать в опросах
    Вы не можете прикреплять файлы к сообщениям
    Вы можете скачивать файлы