Всегда рабочее зеркало без VPN и Proxy просто перед .vidak.icu напиши любое слово или цифру, Пример http://px6a.vidak.icu

MVO

MVO

1 сезон

1

1 сезон

iTunes

1 сезон

13

1 сезон

Deluxe

pack

Рекомендуем

Repack

30

ВАЖНО

RePack

MK11

RePack

jed

RePack

fifa19

RePack

RDR2

RePack

NEED FOR SPEED™ PAYBACK

Кинопоиск HD

6 сезон

 Острые козырьки 6 сезон

Все сериалы

все сериалы на PB.wtf

RePack

FAR CRY 5
  
Magnet ссылка

Темный рыцарь / The Dark Knight (Кристофер Нолан) [2008, фантастика, боевик, триллер, UHD BDRip 2160p] DUB [rus, ukr] + MVO + 4xAVO + 2xVO pb.wtf

Темный рыцарь через торрент pb.wtf

Размер: 34.74 GB | Добавлен: 4 года 1 мес. назад | Торрент скачан:140 раз
Смотреть онлайн Темный рыцарь | Скачать    Ребята, помогите собрать деньги на оплату серверов!!!

23-06-2018 02:11 Темный рыцарь Скачать торрент  

Темный рыцарь / The Dark Knight«Добро пожаловать в мир Хаоса!»
Год выпуска: 2008
Страна: США, Великобритания
Жанр: фантастика, боевик, триллер, криминал, драма
Продолжительность: 02:32:12
Перевод: Дублированный, профессиональный многоголосый, авторский, любительский одноголосый
Субтитры: Русские(Forced,full), английские(SDH), украинские(Full)
Режиссер: Кристофер Нолан
В ролях:

Кристиан Бэйл (Bruce Wayne), Хит Леджер (Joker), Аарон Экхарт (Harvey Dent), Мэгги Джилленхол (Rachel), Гари Олдман (Gordon), Майкл Кейн (Alfred), Морган Фриман (Lucius Fox), Чин Хань (Lau), Нестор Карбонелл (Mayor), Эрик Робертс (Maroni), Ричи Костер (Chechen), Моник Кёрнен (Ramirez)
Описание:
Бэтмен поднимает ставки в войне с криминалом. С помощью лейтенанта Джима Гордона и прокурора Харви Дента он намерен очистить улицы от преступности, отравляющей город. Сотрудничество оказывается эффективным, но скоро они обнаружат себя посреди хаоса, развязанного восходящим криминальным гением, известным испуганным горожанам под именем Джокер.
Рейтинг:

MPAA: PG-13 - Детям до 13 лет просмотр не желателен
Качество: UHD BDRip 2160p
Формат: MKV
Видео: HEVC, 47159 Кбит/с, 3840x2160, 23.976 Кадр/с
Аудио #1: Русский | AC3, 6 ch, 640 Кбит/с | Дублированный-BluRay 4K |
Аудио #2: Украинский | AC3, 6 ch, 448 Кбит/с | Дублированный-BluRay CEE |
Аудио #3: Русский | AC3, 6 ch, 448 Кбит/с | Профессиональный многоголосый-Кравец |
Аудио #4: Русский | AC3, 6 ch, 448 Кбит/с | Любительский одноголосый-Данис Нурмухаметов |
Аудио #5: Русский | DTS, 6 ch, ~1510 Кбит/с | Любительский одноголосый-VO REN_313
Аудио #6: Русский | DTS-HD MA, 6 ch, 2133 Кбит/с | Дублированный-Kinoton |
Аудио #7: Русский | AC3, 6 ch, 384 Кбит/с | Авторский-Чадов |
Аудио #8: Русский | DTS-HD MA, 6 ch, 2225 Кбит/с | Авторский-Живов |
Аудио #9: Русский | DTS-HD MA, 6 ch, 2211 Кбит/с | Авторский-Сербин |
Аудио #10: Русский | DTS-HD MA, 6 ch, 2212 Кбит/с | Авторский-Гаврилов |
Аудио #11: Английский | DTS-HD MA, 6 ch, 3840 Кбит/с | Original |
Навигация по главам: есть
Оскар, 2009 год
Победитель (2):
Лучшая мужская роль второго плана (Хит Леджер)
Лучший монтаж звука
Номинации (6):
Лучшая работа оператора
Лучшие декорации
Лучший звук
Лучший монтаж
Лучшие визуальные эффекты
Лучший грим

Золотой глобус, 2009 год
Победитель (1):
Лучшая мужская роль второго плана (Хит Леджер)

Премия канала «MTV», 2009 год
Победитель (1):
Лучший злодей (Хит Леджер)
Номинации (3):
Лучший фильм
Лучшая драка
Лучшая мужская роль (Кристиан Бэйл)

Британская академия, 2009 год
Победитель (1):
Лучшая мужская роль второго плана (Хит Леджер)
Номинации (8):
Лучшая работа оператора
Лучшие костюмы
Лучший звук
Лучший монтаж
Лучшие визуальные эффекты
Лучший саундтрек
Лучшая работа художника-постановщика
Лучший грим/прически
• В одном из эпизодов фильма, при демонстрации нового костюма Бэтмена, сконструированного Фоксом, Брюс спрашивает, сможет ли он выдержать нападение собак, на что Луциус отшучиваясь говорит, что новый костюм «против кошек точно выдержит», тем самым напоминая об одном из персонажей комиксов — Женщине-кошке.

• Как шутка, один из костюмов Бэтмена был сделан с сосками, и был дан Кристиану Бэйлу. Но тот уже знал об этой шутке, так как видел эскизы на стадии препродакшна, поэтому он не смутился, а даже попозировал для некоторых публичных фотографий.

• Рабочие названия картины «Бэтмен: начало 2», «Бэтмен: Темный рыцарь».

• Новой игрушкой Бэтмена/Брюса Уэйна, помимо Batpod(а) становится новая модель машины Lamborghini. Обычно Брюс в виде своего Альтер Эго спасает жителей Готэма на Бэтмобиле, а теперь пришло время прокатиться и на новой спортивной машине Lamborghini Murcielago LP640. В особенности этой машины входит питание от 640 лошадиных сил, двенадцатицилиндровый двигатель, способный разгоняться до 211 миль в час. Кстати, это не первая Lamborghini Брюса Уэйна, в 2005 году, в картине «Бэтмен: Начало» дебютировала машина Lamborghini Murcielago Roadster.

• Фальшивое название проекта «Первый поцелуй Рори». Сына Кристофера Нолана зовут Рори.

• Мэтт Дэймон был фаворитом Кристофера Нолана на роль Харви Дента, но актер отказался. Другими рассматриваемыми кандидатурами до того как роль отошла к Аарону Экхарту, были Хью Джекман, Райан Филипп, Лив Шрайбер и Джош Лукас.

• На одной из стадий производства возник слух, что в картине должен появиться Человек-Пингвин. Боб Хоскинс выступил с официальным заявлением, что хотел бы сыграть этого персонажа, желая поработать с таким талантливым режиссером как Кристофер Нолан. Нолан же заявил, что никаких разговоров о Человеке-Пингвине не было, да и вообще этот персонаж слишком неестественен.

• Пол Беттани, Робин Уильямс, Эдриан Броуди и Лейчи Халм высказывали свой интерес к исполнению роли Джокера.

• Когда Кристофера Нолана спросили: «Почему Хит Леджер будет Джокером?», тот ответил: «Потому что он бесстрашен».

• До того как Мэгги Джилленхол заменила Кэти Холмс в роли Рэйчел Доус, на эту роль рассматривались кандидатуры Рэйчел МакАдамс и Эмили Блант.

• Кристофер Нолан заявил, что цитирует «Схватку» (1995) в некоторых сценах картины.

• Чтобы подготовиться к роли Джокера Хит Леджер жил целый месяц один в отеле, разрабатывая психологию своего героя, жестикуляцию и голос. Последнее, по его словам, было самым трудным. Актер вел дневник, в котором записывал мысли и чувства Джокера. Также он в подготовке к роли взял манеры Алекса из «Заводного апельсина» (1971) и Сида Вишеса из группы «Sex Pistols».

• Смерть Хита Леджера 22 января 2008 года породила много слухов о том, что картину придется переснять, однако на тот момент все сцены с актером были отсняты.

• Большое влияние на персонаж Джокера в этой версии повлияли эпизоды комиксов о Бэтмене под названиями «Длинный Хэллоуин», «Убийственная шутка», «Человек, который смеется». Один из создателей этого персонажа в 1940-ых годах, Джерри Робинсон, был нанят консультантом, т. е. также как и его коллега Боб Кейн для «Бэтмена» (1989).

• Один из взрывов в картине был снят на станции Battersea Power в Лондоне. Шум так напугал местных жителей, что была спровоцирована паника этим «террористическим актом».

• Мэра города играет актер Нестор Карбонел, у которого в телевизионной фильмографии есть персонаж по имени Бэтменуэль.

• Грим Джокера состоит из трёх деталей — особых суперпрочных силиконовых накладок, которые закреплены специальными косметическими средствами. Две из них прикреплены к щекам, а третья под нижней челюстью. Грим на губах выполнен с помощью специальной помады и силиконовых средств, способных придать лицу эффект растянутого рта. Такое соединение в сочетании с гримом позволяет получить эффект разорванного от уха до уха рта и послетравматического келоида на нижней губе и правой щеке, чтобы еще больше устрашить лицо актера, и к тому же придать образу некие внешние уродства. Данные накладки очень подвижны и легко сгибаются, позволяя актёру не только свободно и естественно двигать разорванным ртом, но и полностью владеть мимикой своего лица. При этом все выглядит невероятно естественно и впечатляюще. Кроме этого на лицо также нанесен специальный грим, позволяющий придать лицу крайне бледный оттенок, и поэтому герой Хита выглядит как оживший мертвец. Весь грим, не считая накладок, положен небрежно и неаккуратно, чтобы у зрителя отпали все сомнения, что перед ними настоящий псих. Ежедневный грим Хита Леджера занимал чуть менее часа.

• Хит Леджер отказался от участия в съёмках фильма «Австралия» (2008), чтобы сыграть Джокера.

• Это первый фильм «Бэтманианы», в котором у костюма Бэтмена свободно поворачивается шея.

• Съемки картины проходили в Чикаго, Лондоне, Гонконге и Лос-Анджелесе.

• В сцене где Джокер в больнице одет как медсестра, на его бэйджике написано имя — Матильда. Так же зовут и дочь Хита Леджера.

• В некоторые кинотеатры США фильм был доставлен под названием «Oliver`s Army» («Армия Оливера»).

• В одном из интервью Кристиан Бэйл рассказал, что во время съёмок допроса Хит Леджер хотел, чтобы он ударил его как можно сильнее, чтобы почувствовать эмоции, необходимые для этой сцены.

• «Тёмный Рыцарь» заработал за первые шесть дней больше денег, чем «Бэтмен: Начало» за всё время.

• Гранатомет в фильме — российский RPG-7.

• Джокер стреляет из пистолета «Glock 18».

• От обычных мотоциклов Бэтпод отличает то, что у него два двигателя, расположенных в центре колес. Это чудо техники было создано руками Криса Корбулда.

• Готовясь к роли, Аарон Экхарт подробно изучал наиболее яркие из описанных случаев раздвоения личности.
Во всех сценах с Бэтподом Бэйла заменял каскадер — Жан-Пьер Гой.

• Число убитых героев равно 36.

• Фильм стал четвёртой картиной в мире, заработавшей свыше одного миллиарда.

• В сцене погони за броневиком была разбита камера Imax MSM прикрепленная к Мерседесу. Примечательно, что таких камер существовало на тот момент всего 4.

• Название машины на которой Бэтмен/Брюс Уэйн ездит по городу — «Murcielago», с испанского переводится как «летучая мышь».

• Сцена погони Джокера и его банды за бронированной полицейской машиной Харви Дента была снята в двух местах — непосредственно под Чикаго (в Нижнем Уэкере) и в Гонконге, где стараниями команды Криса Корбулда были построены макеты Нижнего Уэкера, необходимых транспортных средств и самого Бэт-мобиля. Так был снят эпизод столкновения Бэт-мобиля с мусоровозом. Сделано это было в связи с тем, что власти Чикаго не позволили портить основание города, коим и является Нижний Уэкер.

• Фильм посвящен памяти Хита Леджера и Конвея Виклиффа. Это сказано в финальных титрах картины.

• Роль Барбары Гордон сыграла актриса Мелинда МакГроу, сменив актрису Илиссу Фрадин, которая снималась в первой части трилогии эпизодически, когда Бэтмен и Гордон говорили о том, что Бэтмен должен допросит детектива Флесса о наркотиках.

• Хит Леджер импровизировал, начав хлопать в тюрьме, когда инспектора Гордона назначили комиссаром. Кристофер Нолан позднее включил эту сцену в окончательный вариант фильма.
Аудио #6: Дорожка сделана из оригинальной DTS-HD MA 5.1 и дублированной Dolby Digital 5.1 дорожек путём замены всех участков с оригинальной речью, отголосками и эхом на аналогичные с дублированной дорожки во всех каналах.
Complete name : E:\The.Dark.Knight.2008.2160p.UHD.BluRay.X265-SpaceHD13.mkv
Format : Matroska
Format version : Version 4 / Version 2
File size : 34.7 GiB
Duration : 2 h 32 min
Overall bit rate : 32.7 Mb/s
Movie name : The.Dark.Knight.2008.2160p.UHD.BluRay.X265-SpaceHD13
Encoded date : UTC 2018-06-22 19:37:41
Writing application : mkvmerge v22.0.0 ('At The End Of The World') 64-bit
Writing library : libebml v1.3.5 + libmatroska v1.4.8

Video
ID : 1
Format : HEVC
Format/Info : High Efficiency Video Coding
Commercial name : HDR10
Format profile : Main [email protected]@High
Codec ID : V_MPEGH/ISO/HEVC
Duration : 2 h 32 min
Bit rate : 16.1 Mb/s
Width : 3 840 pixels
Height : 2 160 pixels
Display aspect ratio : 16:9
Frame rate mode : Constant
Frame rate : 23.976 (24000/1001) FPS
Color space : YUV
Chroma subsampling : 4:2:0 (Type 2)
Bit depth : 10 bits
Bits/(Pixel*Frame) : 0.081
Stream size : 17.1 GiB (49%)
Title : The.Dark.Knight.2008.2160p.UHD.BluRay.X265-SpaceHD13
Writing library : x265 2.6+4-f7498acb3874:[Windows][GCC 7.2.0][64 bit] 10bit
Encoding settings : cpuid=1173503 / frame-threads=4 / numa-pools=16 / wpp / no-pmode / no-pme / no-psnr / no-ssim / log-level=2 / input-csp=1 / input-res=3840x2160 / interlace=0 / total-frames=218955 / level-idc=51 / high-tier=1 / uhd-bd=0 / ref=4 / no-allow-non-conformance / repeat-headers / annexb / aud / hrd / info / hash=0 / no-temporal-layers / no-open-gop / min-keyint=24 / keyint=240 / bframes=4 / b-adapt=2 / b-pyramid / bframe-bias=0 / rc-lookahead=25 / lookahead-slices=4 / scenecut=40 / no-intra-refresh / ctu=64 / min-cu-size=8 / rect / no-amp / max-tu-size=32 / tu-inter-depth=1 / tu-intra-depth=1 / limit-tu=0 / rdoq-level=2 / dynamic-rd=0.00 / no-ssim-rd / signhide / no-tskip / nr-intra=0 / nr-inter=0 / no-constrained-intra / no-strong-intra-smoothing / max-merge=3 / limit-refs=3 / limit-modes / me=3 / subme=3 / merange=57 / temporal-mvp / weightp / no-weightb / no-analyze-src-pics / deblock=-3:-3 / no-sao / no-sao-non-deblock / rd=4 / no-early-skip / rskip / no-fast-intra / no-tskip-fast / no-cu-lossless / no-b-intra / no-splitrd-skip / rdpenalty=0 / psy-rd=2.00 / psy-rdoq=1.00 / no-rd-refine / analysis-reuse-mode=0 / no-lossless / cbqpoffs=0 / crqpoffs=0 / rc=crf / crf=17.0 / qcomp=0.60 / qpstep=4 / stats-write=0 / stats-read=0 / vbv-maxrate=160000 / vbv-bufsize=160000 / vbv-init=0.9 / crf-max=0.0 / crf-min=0.0 / ipratio=1.40 / pbratio=1.30 / aq-mode=1 / aq-strength=1.00 / cutree / zone-count=0 / no-strict-cbr / qg-size=32 / no-rc-grain / qpmax=69 / qpmin=0 / no-const-vbv / sar=1 / overscan=0 / videoformat=5 / range=0 / colorprim=9 / transfer=16 / colormatrix=9 / chromaloc=1 / chromaloc-top=2 / chromaloc-bottom=2 / display-window=0 / master-display=G(13250,34500)B(7500,3000)R(34000,16000)WP(15635,16450)L(40000000,50) / max-cll=1002,225 / min-luma=0 / max-luma=1023 / log2-max-poc-lsb=8 / vui-timing-info / vui-hrd-info / slices=1 / opt-qp-pps / opt-ref-list-length-pps / no-multi-pass-opt-rps / scenecut-bias=0.05 / no-opt-cu-delta-qp / no-aq-motion / hdr / hdr-opt / no-dhdr10-opt / analysis-reuse-level=5 / scale-factor=0 / refine-intra=0 / refine-inter=0 / refine-mv=0 / no-limit-sao / ctu-info=0 / no-lowpass-dct / refine-mv-type=0 / copy-pic=1
Default : Yes
Forced : No
Color range : Limited
Color primaries : BT.2020
Transfer characteristics : PQ
Matrix coefficients : BT.2020 non-constant
Mastering display color pri : Display P3
Mastering display luminance : min: 0.0050 cd/m2, max: 4000 cd/m2
Maximum Content Light Level : 1002 cd/m2
Maximum Frame-Average Light : 225 cd/m2

Audio #1
ID : 2
Format : AC-3
Format/Info : Audio Coding 3
Codec ID : A_AC3
Duration : 2 h 32 min
Bit rate mode : Constant
Bit rate : 640 kb/s
Channel(s) : 6 channels
Channel positions : Front: L C R, Side: L R, LFE
Sampling rate : 48.0 kHz
Frame rate : 31.250 FPS (1536 SPF)
Bit depth : 16 bits
Compression mode : Lossy
Stream size : 697 MiB (2%)
Title : The.Dark.Knight.2008.2160p.UHD.BluRay.X265-SpaceHD13[BluRay 4K]
Language : Russian
Service kind : Complete Main
Default : Yes
Forced : Yes

Audio #2
ID : 3
Format : AC-3
Format/Info : Audio Coding 3
Codec ID : A_AC3
Duration : 2 h 32 min
Bit rate mode : Constant
Bit rate : 448 kb/s
Channel(s) : 6 channels
Channel positions : Front: L C R, Side: L R, LFE
Sampling rate : 48.0 kHz
Frame rate : 31.250 FPS (1536 SPF)
Bit depth : 16 bits
Compression mode : Lossy
Stream size : 488 MiB (1%)
Title : The.Dark.Knight.2008.2160p.UHD.BluRay.X265-SpaceHD13[BluRay CEE]
Language : Ukrainian
Service kind : Complete Main
Default : No
Forced : No

Audio #3
ID : 4
Format : AC-3
Format/Info : Audio Coding 3
Codec ID : A_AC3
Duration : 2 h 32 min
Bit rate mode : Constant
Bit rate : 448 kb/s
Channel(s) : 6 channels
Channel positions : Front: L C R, Side: L R, LFE
Sampling rate : 48.0 kHz
Frame rate : 31.250 FPS (1536 SPF)
Bit depth : 16 bits
Compression mode : Lossy
Stream size : 488 MiB (1%)
Title : The.Dark.Knight.2008.2160p.UHD.BluRay.X265-SpaceHD13[Кравец]
Language : Russian
Service kind : Complete Main
Default : No
Forced : No

Audio #4
ID : 5
Format : AC-3
Format/Info : Audio Coding 3
Codec ID : A_AC3
Duration : 2 h 32 min
Bit rate mode : Constant
Bit rate : 384 kb/s
Channel(s) : 6 channels
Channel positions : Front: L C R, Side: L R, LFE
Sampling rate : 48.0 kHz
Frame rate : 31.250 FPS (1536 SPF)
Bit depth : 16 bits
Compression mode : Lossy
Stream size : 418 MiB (1%)
Title : The.Dark.Knight.2008.2160p.UHD.BluRay.X265-SpaceHD13[Чадов]
Language : Russian
Service kind : Complete Main
Default : No
Forced : No

Audio #5
ID : 6
Format : AC-3
Format/Info : Audio Coding 3
Codec ID : A_AC3
Duration : 2 h 32 min
Bit rate mode : Constant
Bit rate : 448 kb/s
Channel(s) : 6 channels
Channel positions : Front: L C R, Side: L R, LFE
Sampling rate : 48.0 kHz
Frame rate : 31.250 FPS (1536 SPF)
Bit depth : 16 bits
Compression mode : Lossy
Stream size : 488 MiB (1%)
Title : The.Dark.Knight.2008.2160p.UHD.BluRay.X265-SpaceHD13 [Данис Нурмухаметов]
Language : Russian
Service kind : Complete Main
Default : No
Forced : No

Audio #6
ID : 7
Format : DTS
Format/Info : Digital Theater Systems
Codec ID : A_DTS
Duration : 2 h 32 min
Bit rate mode : Constant
Bit rate : 1 510 kb/s
Channel(s) : 6 channels
Channel positions : Front: L C R, Side: L R, LFE
Sampling rate : 48.0 kHz
Frame rate : 93.750 FPS (512 SPF)
Bit depth : 24 bits
Compression mode : Lossy
Stream size : 1.61 GiB (5%)
Title : The.Dark.Knight.2008.2160p.UHD.BluRay.X265-SpaceHD13[VO REN_313]
Language : Russian
Default : No
Forced : No

Audio #7
ID : 8
Format : DTS
Format/Info : Digital Theater Systems
Format profile : MA / Core
Codec ID : A_DTS
Duration : 2 h 32 min
Bit rate mode : Variable / Constant
Bit rate : 2 133 kb/s / 1 509 kb/s
Channel(s) : 6 channels
Channel positions : Front: L C R, Side: L R, LFE
Sampling rate : 48.0 kHz
Frame rate : 93.750 FPS (512 SPF)
Bit depth : 16 bits
Compression mode : Lossless / Lossy
Stream size : 2.27 GiB (7%)
Title : The.Dark.Knight.2008.2160p.UHD.BluRay.X265-SpaceHD13[Kinoton-DUB]
Language : Russian
Default : No
Forced : No

Audio #8
ID : 9
Format : DTS
Format/Info : Digital Theater Systems
Format profile : MA / Core
Codec ID : A_DTS
Duration : 2 h 32 min
Bit rate mode : Variable / Constant
Bit rate : 2 225 kb/s / 1 509 kb/s
Channel(s) : 6 channels
Channel positions : Front: L C R, Side: L R, LFE
Sampling rate : 48.0 kHz
Frame rate : 93.750 FPS (512 SPF)
Bit depth : 16 bits
Compression mode : Lossless / Lossy
Stream size : 2.37 GiB (7%)
Title : The.Dark.Knight.2008.2160p.UHD.BluRay.X265-SpaceHD13[Живов]
Language : Russian
Default : No
Forced : No

Audio #9
ID : 10
Format : DTS
Format/Info : Digital Theater Systems
Format profile : MA / Core
Codec ID : A_DTS
Duration : 2 h 32 min
Bit rate mode : Variable / Constant
Bit rate : 2 211 kb/s / 1 509 kb/s
Channel(s) : 6 channels
Channel positions : Front: L C R, Side: L R, LFE
Sampling rate : 48.0 kHz
Frame rate : 93.750 FPS (512 SPF)
Bit depth : 16 bits
Compression mode : Lossless / Lossy
Stream size : 2.35 GiB (7%)
Title : The.Dark.Knight.2008.2160p.UHD.BluRay.X265-SpaceHD13[Сербин]
Language : Russian
Default : No
Forced : No

Audio #10
ID : 11
Format : DTS
Format/Info : Digital Theater Systems
Format profile : MA / Core
Codec ID : A_DTS
Duration : 2 h 32 min
Bit rate mode : Variable / Constant
Bit rate : 2 212 kb/s / 1 509 kb/s
Channel(s) : 6 channels
Channel positions : Front: L C R, Side: L R, LFE
Sampling rate : 48.0 kHz
Frame rate : 93.750 FPS (512 SPF)
Bit depth : 16 bits
Compression mode : Lossless / Lossy
Stream size : 2.35 GiB (7%)
Title : The.Dark.Knight.2008.2160p.UHD.BluRay.X265-SpaceHD13[Гаврилов]
Language : Russian
Default : No
Forced : No

Audio #11
ID : 12
Format : DTS
Format/Info : Digital Theater Systems
Format profile : MA / Core
Codec ID : A_DTS
Duration : 2 h 32 min
Bit rate mode : Variable / Constant
Bit rate : 3 840 kb/s / 1 509 kb/s
Channel(s) : 6 channels
Channel positions : Front: L C R, Side: L R, LFE
Sampling rate : 48.0 kHz
Frame rate : 93.750 FPS (512 SPF)
Bit depth : 24 bits
Compression mode : Lossless / Lossy
Stream size : 4.06 GiB (12%)
Title : The.Dark.Knight.2008.2160p.UHD.BluRay.X265-SpaceHD13
Language : English
Default : No
Forced : No

Text #1
ID : 13
Format : UTF-8
Codec ID : S_TEXT/UTF8
Codec ID/Info : UTF-8 Plain Text
Duration : 2 h 30 min
Bit rate : 62 b/s
Count of elements : 1825
Stream size : 69.1 KiB (0%)
Title : Stripped SRT
Language : English
Default : No
Forced : No

Text #2
ID : 14
Format : UTF-8
Codec ID : S_TEXT/UTF8
Codec ID/Info : UTF-8 Plain Text
Duration : 2 h 30 min
Bit rate : 66 b/s
Count of elements : 2010
Stream size : 73.9 KiB (0%)
Title : SDH SRT
Language : English
Default : No
Forced : No

Text #3
ID : 15
Format : PGS
Muxing mode : zlib
Codec ID : S_HDMV/PGS
Codec ID/Info : Picture based subtitle format used on BDs/HD-DVDs
Duration : 2 h 30 min
Bit rate : 38.8 kb/s
Count of elements : 4020
Stream size : 41.8 MiB (0%)
Title : SDH
Language : English
Default : No
Forced : No

Text #4
ID : 16
Format : PGS
Muxing mode : zlib
Codec ID : S_HDMV/PGS
Codec ID/Info : Picture based subtitle format used on BDs/HD-DVDs
Duration : 2 h 30 min
Bit rate : 33.1 kb/s
Count of elements : 3730
Stream size : 35.6 MiB (0%)
Title : Full
Language : Russian
Default : Yes
Forced : Yes

Text #5
ID : 17
Format : PGS
Muxing mode : zlib
Codec ID : S_HDMV/PGS
Codec ID/Info : Picture based subtitle format used on BDs/HD-DVDs
Duration : 2 h 30 min
Bit rate : 52.9 kb/s
Count of elements : 3734
Stream size : 56.9 MiB (0%)
Title : BD CEE
Language : Russian
Default : No
Forced : No

Text #6
ID : 18
Format : PGS
Muxing mode : zlib
Codec ID : S_HDMV/PGS
Codec ID/Info : Picture based subtitle format used on BDs/HD-DVDs
Duration : 2 h 22 min
Bit rate : 58.2 kb/s
Count of elements : 3586
Stream size : 59.3 MiB (0%)
Title : Goblin
Language : Russian
Default : No
Forced : No

Text #7
ID : 19
Format : PGS
Muxing mode : zlib
Codec ID : S_HDMV/PGS
Codec ID/Info : Picture based subtitle format used on BDs/HD-DVDs
Duration : 2 h 24 min
Bit rate : 60.6 kb/s
Count of elements : 3796
Stream size : 62.7 MiB (0%)
Title : Voronine
Language : Russian
Default : No
Forced : No

Text #8
ID : 20
Format : PGS
Muxing mode : zlib
Codec ID : S_HDMV/PGS
Codec ID/Info : Picture based subtitle format used on BDs/HD-DVDs
Duration : 2 h 25 min
Bit rate : 180 b/s
Count of elements : 28
Stream size : 192 KiB (0%)
Title : Forced (by Romawov)
Language : Russian
Default : No
Forced : No

Text #9
ID : 21
Format : PGS
Muxing mode : zlib
Codec ID : S_HDMV/PGS
Codec ID/Info : Picture based subtitle format used on BDs/HD-DVDs
Duration : 2 h 30 min
Bit rate : 49.1 kb/s
Count of elements : 3780
Stream size : 52.8 MiB (0%)
Title : Full
Language : Ukrainian
Default : No
Forced : No

Menu
00:00:00.000 : en:00:00:00.000
00:06:23.925 : en:00:06:23.925
00:10:36.135 : en:00:10:36.135
00:13:52.540 : en:00:13:52.540
00:17:54.156 : en:00:17:54.156
00:21:39.298 : en:00:21:39.298
00:26:09.985 : en:00:26:09.985
00:29:36.233 : en:00:29:36.233
00:31:42.442 : en:00:31:42.442
00:37:49.017 : en:00:37:49.017
00:43:34.028 : en:00:43:34.028
00:46:39.505 : en:00:46:39.505
00:48:57.726 : en:00:48:57.726
00:53:19.405 : en:00:53:19.405
00:57:15.599 : en:00:57:15.599
00:59:26.313 : en:00:59:26.313
01:03:59.544 : en:01:03:59.544
01:08:23.516 : en:01:08:23.516
01:10:48.286 : en:01:10:48.286
01:14:24.877 : en:01:14:24.877
01:18:05.598 : en:01:18:05.598
01:22:22.396 : en:01:22:22.396
01:24:48.542 : en:01:24:48.542
01:30:48.401 : en:01:30:48.401
01:34:04.931 : en:01:34:04.931
01:39:57.742 : en:01:39:57.742
01:42:05.453 : en:01:42:05.453
01:44:59.877 : en:01:44:59.877
01:47:00.831 : en:01:47:00.831
01:51:09.872 : en:01:51:09.872
01:54:14.598 : en:01:54:14.598
01:57:03.975 : en:01:57:03.975
02:00:14.207 : en:02:00:14.207
02:03:37.535 : en:02:03:37.535
02:09:07.573 : en:02:09:07.573
02:12:27.273 : en:02:12:27.273
02:15:22.740 : en:02:15:22.740
02:19:58.640 : en:02:19:58.640
02:24:26.658 : en:02:24:26.658
pb.wtf



Скачать Темный рыцарь через торрент https://b.radikal.ru/b39/1806/6b/f85ca3636034.jpg Скачать, смотреть онлайн Темный рыцарь бесплантно в хорошем качестве Описание: Бэтмен поднимает ставки в войне с криминалом. С помощью лейтенанта Джима Гордона и прокурора Харви Дента он намерен очистить ... 10 10 3
Info! Золотая раздача, скачанное не засчитывается.
Торрент: Зарегистрирован [2018-06-23 02:11] · скачан: 140 раз
Статус: √ проверено
Размер: 34.74 GB
Как cкачать? Как скачать Темный рыцарь через торрент | UTorrent

% Раздел Тема Автор DL S | L
Фильмы [HD 720p, 1080p] (Хороший звук DUB, MVO) [ 11.53 GB ] Темный рыцарь / The Dark Knight [2008 BDRip 720p IMAX] DUB MVO 4xAVO _denis_100 Скачать
1 | 0
Ultra HD (UHD: 2K, 4K, 8K) — видео сверхвысокой чёткости [ 66.73 GB ] Темный рыцарь / The Dark Knight [2008 UHD BDRemux 2160p] DUB [rus ukr] + MVO + 3xAVO + 2xVO sheker187 Скачать
1 | 0
Фильмы 2006-2008 [ 5.04 GB ] Темный рыцарь / The Dark Knight [2008 BDRip] DUB |CEE| + MVO |Кравец| + 3xAVO |Сербин Гаврилов REN 313| + DUB |Ukr| + Original |Eng| + Subs |Rus Eng Ukr| Mr. Freeman Скачать
1 | 0

28-11-2019 20:33  

Отключить вcю реклaмy на сайте

    Дорогой пользователь! Огромная просьба, поблагодарите релизера, оцените раздачу и оставьте свои комментарий, если Вы скачали Темный рыцарь через торрент бесплатно!
    Комментировать посты могут только пользователи прошедшие не сложную регистрацию
    Показать сообщения:    

    Темный рыцарь через торрент
    Скачать бесплатно Темный рыцарь
    Темный рыцарь скачать торрент
    Темный рыцарь смотреть онлайн
    Cкачать фильм Темный рыцарь бесплатно
    Темный рыцарь скачать торрент в хорошем качестве
    Темный рыцарь смотреть онлайн бесплатно в хорошем качестве


    Вы не можете начинать темы
    Вы не можете отвечать на сообщения
    Вы не можете редактировать свои сообщения
    Вы не можете удалять свои сообщения
    Вы не можете голосовать в опросах
    Вы не можете прикреплять файлы к сообщениям
    Вы можете скачивать файлы