новый адрес
Ссылка на приватное зеркало всего за 1$. Внимание количество ограничено!!!

iTunes

1+1

iTunes

мы

WEB-DL

1

iTunes

Чернобыль

iTunes

Ральф против интернета

Лицензия

ПШазам

Лицензия

Оно 2

Лицензия

30
pack

Вам бонус

ВАЖНО

!!Акция!!

Alien_RageХит недели

RePack

Resident Evil 21

ИГРА 18+

pack

RePack

jed

!!Акция!!

Alien_Rage

RePack

fifa19

RePack

Assassins Creed: Odyssey

RePack

NEED FOR SPEED™ PAYBACK

3 сезон

9 сезон

Бесстыжие 9 сезон

Все сериалы

все сериалы на PB.wtf

RePack

FAR CRY 5
Ребята, катастрофически не хватает 1900р. для оплаты серверов за Октябрь (всвязи с блокировками трафик упал в 3 раза), 1-2р., выручайте.
  

Побег заключённого 614 / The Escape of Prisoner 614 (Зак Голден) [2018, комедия, криминал, BDRip-AVC] MVO [HDrezka Studio] - ExKinoRay pb.wtf

Побег заключённого 614 через торрент pb.wtf

Размер: 1.85 GB | Добавлен: 1 год 5 мес. назад | Торрент скачан:268 раз
Скачать  

23-06-2018 02:32 Побег заключённого 614 Скачать торрент  

Информация о фильме
Название: Побег заключённого 614
Оригинальное название: The Escape of Prisoner 614
Год выхода: 2018
Жанр: Комедия, криминал, приключения
Режиссер: Зак Голден
В ролях: Рон Перлман, Мартин Старр, Джейк Макдорман, Джордж Сэмпл, Майкл Сироу, Сондра Джеймс, Лорен Рейто, Уэйн Пайл

Описание:
Действие фильма происходит в 1960 году. Два помощника шерифа теряют свою работу, когда у них из-под носа сбегает преступник. Чтобы получить шанс на восстановление их в должностях, герои отправляются в погоню за беглецом. Но в ходе их небольшого расследования они понимают, что беглец – невинная жертва расисткой судебной системы.

rating

Страна: США
Студия: Yale Productions, SSS Entertainment, Wing and a Prayer Pictures
Продолжительность: 01:37:21
Перевод: Профессиональный (многоголосый, закадровый) | HDrezka Studio

Формат: MKV
Качество: BDRip-AVC
Видео: MPEG-4 AVC, 1024x428 (2.40:1), 23.976 fps, 2074 Kbps, 0.197 bit/pixel
Аудио #01: 48 kHz, AC3, 2.0, 384 Kbps | RUS |
Аудио #02: 48 kHz, AC3, 5.1, 448 Kbps | Оригинал | ENG |
Субтитры: Aнглийские

Сохранены оригинальные чаптеры как на блюрей.

Без какой-либо рекламы
General
Unique ID : 184531073802460499615713437566774559723 (0x8AD3645EBD4B3BDE8A6740CE502043EB)
Complete name : D:\The.Escape.of.Prisoner.614.2018.MVO.BDRip.AVC.ExKinoRay.mkv
Format : Matroska
Format version : Version 2
File size : 1.85 GiB
Duration : 1 h 37 min
Overall bit rate : 2 716 kb/s
Movie name : The Escape of Prisoner 614 2018 from ExKinoRay
Encoded date : UTC 2018-06-22 12:13:46
Writing application : mkvmerge v5.6.0 ('Kenya Kane') built on May 27 2012 16:44:04
Writing library : libebml v1.2.3 + libmatroska v1.3.0

Video
ID : 1
Format : AVC
Format/Info : Advanced Video Codec
Format profile : High@L4.1
Format settings, CABAC : Yes
Format settings, ReFrames : 11 frames
Codec ID : V_MPEG4/ISO/AVC
Duration : 1 h 37 min
Bit rate : 2 074 kb/s
Width : 1 024 pixels
Height : 428 pixels
Display aspect ratio : 2.40:1
Frame rate mode : Constant
Frame rate : 23.976 (23976/1000) FPS
Color space : YUV
Chroma subsampling : 4:2:0
Bit depth : 8 bits
Scan type : Progressive
Bits/(Pixel*Frame) : 0.197
Stream size : 1.37 GiB (74%)
Title : Enigma
Writing library : x264 core 152 r2851 ba24899
Encoding settings : cabac=1 / ref=11 / deblock=1:-2:-2 / analyse=0x3:0x113 / me=umh / subme=11 / psy=1 / psy_rd=1.00:0.05 / mixed_ref=1 / me_range=32 / chroma_me=1 / trellis=2 / 8x8dct=1 / cqm=0 / deadzone=21,11 / fast_pskip=0 / chroma_qp_offset=-3 / threads=12 / lookahead_threads=3 / sliced_threads=0 / nr=0 / decimate=0 / interlaced=0 / bluray_compat=0 / constrained_intra=0 / bframes=11 / b_pyramid=2 / b_adapt=2 / b_bias=0 / direct=3 / weightb=1 / open_gop=0 / weightp=2 / keyint=240 / keyint_min=23 / scenecut=40 / intra_refresh=0 / rc_lookahead=40 / rc=2pass / mbtree=0 / bitrate=2074 / ratetol=1.0 / qcomp=0.60 / qpmin=0 / qpmax=51 / qpstep=4 / cplxblur=20.0 / qblur=0.5 / vbv_maxrate=50000 / vbv_bufsize=62500 / nal_hrd=none / filler=0 / ip_ratio=1.30 / pb_ratio=1.20 / aq=3:0.90
Language : English
Default : Yes
Forced : No
Color range : Limited
Color primaries : BT.709
Transfer characteristics : BT.709
Matrix coefficients : BT.709

Audio #1
ID : 2
Format : AC-3
Format/Info : Audio Coding 3
Mode extension : CM (complete main)
Format settings, Endianness : Big
Codec ID : A_AC3
Duration : 1 h 37 min
Bit rate mode : Constant
Bit rate : 192 kb/s
Channel(s) : 2 channels
Channel positions : Front: L R
Sampling rate : 48.0 kHz
Frame rate : 31.250 FPS (1536 spf)
Compression mode : Lossy
Stream size : 134 MiB (7%)
Title : MVO (HDrezka Studio)
Language : Russian
Default : Yes
Forced : No

Audio #2
ID : 3
Format : AC-3
Format/Info : Audio Coding 3
Mode extension : CM (complete main)
Format settings, Endianness : Big
Codec ID : A_AC3
Duration : 1 h 37 min
Bit rate mode : Constant
Bit rate : 448 kb/s
Channel(s) : 6 channels
Channel positions : Front: L C R, Side: L R, LFE
Sampling rate : 48.0 kHz
Frame rate : 31.250 FPS (1536 spf)
Compression mode : Lossy
Stream size : 312 MiB (16%)
Language : English
Default : No
Forced : No

Text
ID : 4
Format : UTF-8
Codec ID : S_TEXT/UTF8
Codec ID/Info : UTF-8 Plain Text
Language : English
Default : No
Forced : No

Menu
00:00:00.000 : en:Chapter 01
00:05:21.487 : en:Chapter 02
00:14:11.183 : en:Chapter 03
00:18:12.508 : en:Chapter 04
00:23:42.921 : en:Chapter 05
00:32:48.299 : en:Chapter 06
00:39:56.769 : en:Chapter 07
00:44:03.015 : en:Chapter 08
00:50:52.549 : en:Chapter 09
00:58:01.853 : en:Chapter 10
01:02:51.601 : en:Chapter 11
01:08:07.708 : en:Chapter 12
01:14:33.469 : en:Chapter 13
01:18:51.143 : en:Chapter 14
01:25:10.105 : en:Chapter 15
01:32:38.219 : en:Chapter 16
Релиз от:

Автор релиза: pb.wtf



Скачать Побег заключённого 614 через торрент https://c.radikal.ru/c04/1806/72/0ddf3fb298e3.jpg Скачать фильм Побег заключённого 614 через торрент бесплантно в хорошем качестве Описание:Действие фильма происходит в 1960 году. Два помощника шерифа теряют свою работу, когда у них из-под носа сбегает преступник. Чтобы ... 9 10 9
Info! Золотая раздача, скачанное не засчитывается.
Торрент: Зарегистрирован [2018-06-23 02:32] · скачан: 268 раз
Статус: T временная
Размер: 1.85 GB
Как cкачать? Как скачать Побег заключённого 614 через торрент | qTorrent

28-11-2019 20:33  

Отключить всю рекламу на сайте

23-06-2018 05:17 Побег заключённого 614 Скачать торрент  

Enigma2010, спасибище!pb.wtf



    Дорогой пользователь! Огромная просьба, поблагодарите релизера, оцените раздачу и оставьте свои комментарий, если Вы скачали Побег заключённого 614 через торрент бесплатно! Внесите свою лепту в развитие PiratBit!
    Комментировать посты могут только пользователи прошедшие не сложную регистрацию
    Показать сообщения:    

    Побег заключённого 614 через торрент
    Скачать бесплатно Побег заключённого 614
    Побег заключённого 614 скачать торрент
    Побег заключённого 614 смотреть онлайн
    Cкачать фильм Побег заключённого 614 бесплатно
    Побег заключённого 614 скачать торрент в хорошем качестве
    Побег заключённого 614 смотреть онлайн бесплатно в хорошем качестве


    Вы не можете начинать темы
    Вы не можете отвечать на сообщения
    Вы не можете редактировать свои сообщения
    Вы не можете удалять свои сообщения
    Вы не можете голосовать в опросах
    Вы не можете прикреплять файлы к сообщениям
    Вы можете скачивать файлы