Ссылка на приватное зеркало всего за 1$. Внимание количество ограничено!!!

OK

1+1

iTunes

мы

OK

1

WEB-DLRip

Джокер

Пифагор

Ведьмак / The Witcher сериал

iTunes

ПШазам

ОК

Оно 2

iTunes

30
pack

Вам бонус

ВАЖНО

!!Акция!!

Alien_RageХит недели

RePack

Resident Evil 21

ИГРА 18+

pack

RePack

jed

RePack

fifa19

RePack

Assassins Creed: Odyssey

RePack

NEED FOR SPEED™ PAYBACK

4 сезон

9 сезон

Бесстыжие 9 сезон

Все сериалы

все сериалы на PB.wtf

RePack

FAR CRY 5
  

Истории страсти / Lust Stories (Зоя Ахтар, Дибакар Банерджи, Каран Джохар) [2018, драма, комедия, WEB-DL 720p] MVO ["Синема УС"] pb.wtf

Истории страсти через торрент pb.wtf

Размер: 4.18 GB | Добавлен: 1 год 7 мес. назад | Торрент скачан:24 раза
Скачать  

23-06-2018 08:56 Истории страсти Скачать торрент  

Истории страсти / Lust StoriesГод выпуска: 2018
Страна: Индия
Жанр: драма, комедия
Продолжительность: 02:02:40
Перевод: Любительский (многоголосый) | "Синема УС"
Субтитры: отсутствуют

Режиссер: Зоя Ахтар, Дибакар Банерджи, Каран Джохар

rating

В ролях:

Радхика Апте, Бхуми Педнекар, Маниша Койрала, Санджай Капур, Вики Каушал, Киара Адвани, Нил Бхупалам, Джайдип Ахлават, Акаш Тхосар, Неха Дхупия

Описание:

Четыре истории о любви, сексе и браке в современной Индии, где главным действующим лицом является женщина. Отношения между преподавательницей и студентом; работницей по дому и ее работодателем-мужчиной; жена, подозревающая мужа в изменах, и пара любовников, изменяющих своим постоянным партнерам, - все они пытаются разобраться в своих непростых отношениях.

Качество: WEB-DL 720p
Формат: MKV

Видео: h.264, 4491 kb/s, 1280x544
Аудио#1: Русский, (AC3, 2 ch, 384 Кбит/с)

Общее
Уникальный идентификатор : 235660895987782602311408765424935659397 (0xB14AA33BBEF15AD8B436B9ACE27C6785)
Полное имя : D:\Lust.Stories.2O18.P.WEB-DL.72Op_KOSHARA.mkv
Формат : Matroska
Версия формата : Version 2
Размер файла : 4,18 Гбайт
Продолжительность : 2 ч. 2 м.
Режим общего битрейта : Переменный
Общий поток : 4877 Кбит/сек
Дата кодирования : UTC 2018-06-21 12:25:19
Программа кодирования : mkvmerge v8.3.0 ('Over the Horizon') 64bit
Библиотека кодирования : libebml v1.3.1 + libmatroska v1.4.2

Видео
Идентификатор : 1
Формат : AVC
Формат/Информация : Advanced Video Codec
Профиль формата : High@L4.1
Параметр CABAC формата : Да
Параметр RefFrames формата : 4 кадра
Идентификатор кодека : V_MPEG4/ISO/AVC
Продолжительность : 2 ч. 2 м.
Вид битрейта : Переменный
Битрейт : 4491 Кбит/сек
Максимальный битрейт : 5000 Кбит/сек
Ширина : 1280 пикселей
Высота : 544 пикселя
Соотношение сторон : 2,35:1
Режим частоты кадров : Постоянный
Частота кадров : 23,976 (24000/1001) кадра/сек
Стандарт вещания : Component
Цветовое пространство : YUV
Субдискретизация насыщенности : 4:2:0
Битовая глубина : 8 бит
Тип развёртки : Прогрессивная
Бит/(Пиксели*Кадры) : 0.263
Размер потока : 3,77 Гбайт (90%)
Default : Да
Forced : Нет
Цветовой диапазон : Limited
Основные цвета : BT.709
Характеристики трансфера : BT.709
Коэффициенты матрицы : BT.709

Аудио
Идентификатор : 2
Формат : AC-3
Формат/Информация : Audio Coding 3
Расширение режима : CM (complete main)
Параметр Endianness формата : Big
Идентификатор кодека : A_AC3
Продолжительность : 2 ч. 2 м.
Вид битрейта : Постоянный
Битрейт : 384 Кбит/сек
Каналы : 2 канала
Расположение каналов : Front: L R
Частота : 48,0 КГц
Частота кадров : 31,250 кадров/сек (1536 spf)
Метод сжатия : С потерями
Размер потока : 337 Мбайт (8%)
Default : Да
Forced : Нет

pb.wtf



Скачать Истории страсти через торрент http://i104.fastpic.ru/big/2018/0623/d8/d00633d4cfae50604f9fd57efe42a3d8.jpg Скачать фильм Истории страсти через торрент бесплантно в хорошем качестве Описание: Четыре истории о любви, сексе и браке в современной Индии, где главным действующим лицом является женщина. Отношения между ... 10 10 2
Торрент: Зарегистрирован [2018-06-23 08:56] · скачан: 24 раз
Статус: T временная
Размер: 4.18 GB
Как cкачать? Как скачать Истории страсти через торрент | qTorrent

% Раздел Тема Автор DL S | L
T Фильмы (мультфильмы) cо спонсором показа (Новинки AVI/MKV) [ 2.05 GB ] Истории страсти / Lust Stories [2018 WEB-DLRip] MVO ["Синема УС"] bober100 Скачать
1 | 0
T Фильмы (мультфильмы) cо спонсором показа (Новинки AVI/MKV) [ 1.37 GB ] Истории страсти / Lust Stories [2018 WEB-DLRip] MVO ["Синема УС"] bober100 Скачать
1 | 0

28-11-2019 20:33  

Отключить всю рекламу на сайте

    Дорогой пользователь! Огромная просьба, поблагодарите релизера, оцените раздачу и оставьте свои комментарий, если Вы скачали Истории страсти через торрент бесплатно! Внесите свою лепту в развитие PiratBit!
    Комментировать посты могут только пользователи прошедшие не сложную регистрацию
    Показать сообщения:    

    Истории страсти через торрент
    Скачать бесплатно Истории страсти
    Истории страсти скачать торрент
    Истории страсти смотреть онлайн
    Cкачать фильм Истории страсти бесплатно
    Истории страсти скачать торрент в хорошем качестве
    Истории страсти смотреть онлайн бесплатно в хорошем качестве


    Вы не можете начинать темы
    Вы не можете отвечать на сообщения
    Вы не можете редактировать свои сообщения
    Вы не можете удалять свои сообщения
    Вы не можете голосовать в опросах
    Вы не можете прикреплять файлы к сообщениям
    Вы можете скачивать файлы