Ссылка на приватное зеркало нашего сайта всего за 1$. Внимание количество ограничено!!!

2 сезон

iTunes

1 сезон

1

iTunes

iTunes

iTunes

1 сезон

RePack

30

ИГРА 18+

pack

ВАЖНО

!!Акция!!

Alien_RageХит недели

RePack

MK11
pack

Забери бонус

RePack

jed

!!Акция!!

Alien_Rage

RePack

fifa19

RePack

Assassins Creed: Odyssey

RePack

NEED FOR SPEED™ PAYBACK

4 сезон

9 сезон

Бесстыжие 9 сезон

Все сериалы

все сериалы на PB.wtf

RePack

FAR CRY 5
  

Тайны города ЭН / Серии 1-8 из 8 (Николай Хомерики) [2018 г., детектив, драма, SATRip] pb.wtf

Тайны города ЭН через торрент pb.wtf

Размер: 5.81 GB | Добавлен: 2 года 3 мес. назад | Торрент скачан:342 раза
Скачать  

23-06-2018 14:26 Тайны города ЭН Скачать торрент  

Тайны города ЭН / Серии 1-8 из 8
Год выпуска: 2018
Страна: Россия
Жанр: детектив, драма
Продолжительность: 8 х 00:45:00
Субтитры: Нет

Режиссер: Николай Хомерики

В ролях: Светлана Колпакова, Дмитрий Поднозов, Кирилл Гребенщиков, Наталья Батрак, Сергей Удовик, Станислав Рядинский, Игорь Хрипунов, Наталья Рогожкина, Анна Чиповская, Владимир Селезнёв (II), Анатолий Друзенко, Никита Васильев (II), Марина Куделинская

Описание: При въезде в маленький тихий городок находят тело подростка Алика. Неподалеку в овраге – машину ехавшего из Москвы незнакомца Шацкого. Первоначальная версия ДТП отметается, когда у погибшего в легких обнаруживают воду. Если его убили, то кто? Молодой следователь Анна подозревает чужака, ее начальник Михаил Сергеевич считает, что убийца – кто-то из своих. В ходе расследования, к которому, желая себя оправдать, подключается Шацкий, выясняется, что у многих в этом городке были мотивы для убийства.

Качество: SATRip
Формат: AVI
Видео кодек: XviD
Аудио кодек: MP3
Видео: XviD, 1750 Kбит/с, 720x400
Аудио#1: МР3, 2 ch, 192 Кбит/с
скриншот   скриншот   скриншот   скриншот  

General
Complete name : H:\релизы.торрентфайл\Tainy.goroda.N.SATRip.[RiperAM]\1.Tainy.goroda.N.SATRip.[RiperAM].avi
Format : AVI
Format/Info : Audio Video Interleave
File size : 705 MiB
Duration : 50mn 15s
Overall bit rate : 1 962 Kbps
Writing application : VirtualDubMod 1.5.10.3 | www.virtualdub-fr.org || (build 2550/release)
Writing library : VirtualDubMod build 2550/release

Video
ID : 0
Format : MPEG-4 Visual
Format profile : Advanced Simple@L5
Format settings, BVOP : 2
Format settings, QPel : No
Format settings, GMC : No warppoints
Format settings, Matrix : Default (H.263)
Codec ID : XVID
Codec ID/Hint : XviD
Duration : 50mn 15s
Bit rate : 1 760 Kbps
Width : 720 pixels
Height : 400 pixels
Display aspect ratio : 16:9
Frame rate : 25.000 fps
Color space : YUV
Chroma subsampling : 4:2:0
Bit depth : 8 bits
Scan type : Progressive
Compression mode : Lossy
Bits/(Pixel*Frame) : 0.244
Stream size : 633 MiB (90%)
Writing library : XviD 1.2.1 (UTC 2008-12-04)

Audio
ID : 1
Format : MPEG Audio
Format version : Version 1
Format profile : Layer 3
Mode : Joint stereo
Mode extension : MS Stereo
Codec ID : 55
Codec ID/Hint : MP3
Duration : 50mn 15s
Bit rate mode : Constant
Bit rate : 192 Kbps
Channel(s) : 2 channels
Sampling rate : 48.0 KHz
Compression mode : Lossy
Stream size : 69.0 MiB (10%)
Alignment : Aligned on interleaves
Interleave, duration : 40 ms (1.00 video frame)
Interleave, preload duration : 504 ms
Writing library : LAME3.99r
Encoding settings : -m j -V 4 -q 9 -lowpass 18.6 -b 192

Внимание! Раздача ведётся путём добавления новых серий; при каждом добавлении создётся новый торрент. Чтобы начать докачку новой серии, пользователям необходимо сделать следующее:
  • Остановить скачивание,
  • Удалить старый торрент у себя из клиента (старые серии удалять не надо),
  • Скачать новый торрент и запустить его у себя в клиенте вместо старого, при этом указать клиенту путь в старую папку куда и должно происходить скачивание новых серий.
Ваш клиент при этом должен произвести хеширование (проверку) старой папки (если не производит сам - помогите ему сделать это), и будет докачивать только те серии которых у вас ещё нет. Старые серии при этом не удаляются, а продолжают раздаваться!

Eсли вы уже удалили старые серии, то предотвратить повторную закачку старых серий можно, отжав галочку в соответсвующих местах при запуске нового торрента. По возможности, желательно не удалять старые серии как можно дольше чтобы релизёр не столько продолжал раздавать старые серии, а смог сконцентрироваться на новых.
pb.wtf



Скачать Тайны города ЭН через торрент http://pic1.kartinco.top/images/11/djmwf.jpg Скачать фильм Тайны города ЭН через торрент бесплантно в хорошем качестве Описание: При въезде в маленький тихий городок находят тело подростка Алика. Неподалеку в овраге – машину ехавшего из Москвы незнакомца ... 10 10 7
Торрент: Зарегистрирован [2018-06-24 16:05] · скачан: 342 раз
Статус: √ проверено
Размер: 5.81 GB
Как cкачать? Как скачать Тайны города ЭН через торрент | qTorrent

% Раздел Тема Автор DL S | L
Наши сериалы [ 13.92 GB ] Тайны города ЭН / Сезон: 1 / Серии: 1-8 из 8 [2015 WEB-DL 1080p] bober100 Скачать
1 | 0
Наши сериалы [ 9.45 GB ] Тайны города ЭН / Сезон: 1 / Серии: 1-8 из 8 [2015 WEB-DL 720p] bober100 Скачать
1 | 0
Наши сериалы [ 5.51 GB ] Тайны города ЭН / Сезон: 1 / Серии: 1-8 из 8 [2015 WEB-DLRip] bober100 Скачать
1 | 0
Наши сериалы [ 5.78 GB ] Тайны города ЭН / Серии: 1-8 из 8 [2015 SATRip-AVC] aleksan55 Скачать
1 | 0
Наши сериалы [ 15.29 GB ] Тайный город / Серии: 1-8 из 8 [2014 2xDVD9] R5 voovaz Скачать
1 | 0


Последний раз редактировалось: oleg8 (2018-06-24 16:05), всего редактировалось 1 раз

28-11-2019 20:33  

Отключить всю рекламу на сайте

02-03-2019 19:43 Тайны города ЭН Скачать торрент  

Фильм 2015 года выпуска.А не 2018.pb.wtf



    Дорогой пользователь! Огромная просьба, поблагодарите релизера, оцените раздачу и оставьте свои комментарий, если Вы скачали Тайны города ЭН через торрент бесплатно! Внесите свою лепту в развитие PiratBit!
    Комментировать посты могут только пользователи прошедшие не сложную регистрацию
    Показать сообщения:    

    Тайны города ЭН через торрент
    Скачать бесплатно Тайны города ЭН
    Тайны города ЭН скачать торрент
    Тайны города ЭН смотреть онлайн
    Cкачать фильм Тайны города ЭН бесплатно
    Тайны города ЭН скачать торрент в хорошем качестве
    Тайны города ЭН смотреть онлайн бесплатно в хорошем качестве


    Вы не можете начинать темы
    Вы не можете отвечать на сообщения
    Вы не можете редактировать свои сообщения
    Вы не можете удалять свои сообщения
    Вы не можете голосовать в опросах
    Вы не можете прикреплять файлы к сообщениям
    Вы можете скачивать файлы