Ссылка на приватное зеркало всего за 1$. Внимание количество ограничено!!!

OK

1+1

iTunes

мы

OK

1

WEB-DLRip

Джокер

Пифагор

Ведьмак / The Witcher сериал

iTunes

ПШазам

ОК

Оно 2

iTunes

30
pack

Вам бонус

ВАЖНО

!!Акция!!

Alien_RageХит недели

RePack

Resident Evil 21

ИГРА 18+

pack

RePack

jed

RePack

fifa19

RePack

Assassins Creed: Odyssey

RePack

NEED FOR SPEED™ PAYBACK

4 сезон

9 сезон

Бесстыжие 9 сезон

Все сериалы

все сериалы на PB.wtf

RePack

FAR CRY 5
  

Бобры / Серии: 1-2 из 2 (Юрий Попович) [2018, Мелодрама, SATRip] pb.wtf

Бобры через торрент pb.wtf

Размер: 1.2 GB | Добавлен: 1 год 7 мес. назад | Торрент скачан:212 раз
Скачать  

23-06-2018 15:30 Бобры Скачать торрент  

Бобры
Год выпуска: 2018
Страна: Россия
Жанр: Мелодрама
Продолжительность: ~ 00:48:00
Субтитры: отсутствуют

Режиссер: Юрий Попович



В ролях:

Константин Соловьёв, Екатерина Вуличенко, Фёдор Лавров, Владислав Ветров, Денис Беспалый, Глеб Козляев

Описание:

Действие происходит в небольшом поселке Ольховка. Сюда, к продавщице Тамаре, приезжает Владимир Суворов, военный пенсионер, отдавший 25 лет службе в ВВС. Вначале она недоумевает, зачем он приехал, ведь курортные романы должны там и заканчиваться, а он сутки гнал машину из Москвы, это что, разведка боем? Но потом сознается, что она тоже забыть его не может. Она решает, что им надо некоторое время пожить вместе, посмотреть друг на друга, а потом принять решение, как дальше быть. А то, что у нее мужик незнакомый дома ночует, неважно, ведь к ней в поселке особое отношение, она из семьи мэра. В Ольховке свой мир. Правит всем семейство Бобров, это фамилия такая. У всех жителей есть работа, лучшие в области врачи, преступности практически нет. Тут все тихо, по-семейному, каждую субботу люди приходят в клуб, смотрят кино. По соседству с Тамарой живет писатель Кругликов. Он со своими гонорарами мог бы жить в Европе, но выбрал Ольховку. По его словам, здесь настоящая Россия, которую городские интеллигенты не знают и боятся. На первый взгляд полная идиллия, живи и радуйся. Но приживется ли здесь Суворов или нет, решать будет не он, и не Тамара, а мэр, Николай Бобер, ведь, здесь его территория, его законы. Сможет ли Суворов, привыкший всю жизнь выполнять приказы, жить по уставу, по которому живет вся Ольховка...

Качество: SATRip
Формат: AVI

Видео: XviD ~ 1650 Кбит/с, 720x400
Аудио: MP3, 2 ch, 192 Кбит/с
скриншот  скриншот  скриншот  

Общее
Полное имя : D:\Bobry.2017.SATRip.25Kuzmich\Bobry.(01.seriya.iz.02).XviD.SATRip.25Kuzmich.avi
Формат : AVI
Формат/Информация : Audio Video Interleave
Размер файла : 596 Мбайт
Продолжительность : 45 м. 0 с.
Общий поток : 1852 Кбит/сек
Программа кодирования : VirtualDubMod 1.5.10.3 | www.virtualdub-fr.org || (build 2550/release)
Библиотека кодирования : VirtualDubMod build 2550/release

Видео
Идентификатор : 0
Формат : MPEG-4 Visual
Профиль формата : Advanced Simple@L5
Параметр BVOP формата : 1
Параметр QPel формата : Нет
Параметр GMC формата : Без точки перехода
Параметр матрицы формата : Выборочная
Идентификатор кодека : XVID
Идентификатор кодека/Подсказка : XviD
Продолжительность : 45 м. 0 с.
Битрейт : 1650 Кбит/сек
Ширина : 720 пикселей
Высота : 400 пикселей
Соотношение сторон : 16:9
Частота кадров : 25,000 кадров/сек
Цветовое пространство : YUV
Субдискретизация насыщенности : 4:2:0
Битовая глубина : 8 бит
Тип развёртки : Прогрессивная
Метод сжатия : С потерями
Бит/(Пиксели*Кадры) : 0.229
Размер потока : 531 Мбайт (89%)
Библиотека кодирования : XviD 1.2.1 (UTC 2008-12-04)

Аудио
Идентификатор : 1
Формат : MPEG Audio
Версия формата : Version 1
Профиль формата : Layer 3
Режим : Joint stereo
Расширение режима : MS Stereo
Идентификатор кодека : 55
Идентификатор кодека/Подсказка : MP3
Продолжительность : 45 м. 0 с.
Вид битрейта : Постоянный
Битрейт : 192 Кбит/сек
Каналы : 2 канала
Частота : 48,0 КГц
Метод сжатия : С потерями
Размер потока : 61,8 Мбайт (10%)
Выравнивание : Соединение по промежуткам
Продолжительность промежутка : 40 мс. (1,00 видеокадр)
Время предзагрузки промежутка : 504 мс.
Библиотека кодирования : LAME3.99r
Настройки программы : -m j -V 4 -q 0 -lowpass 18.6 -b 192

pb.wtf



Скачать Бобры через торрент http://lostpix.com/img/2018-06/23/mqj72ihngeuh35my16362komf.jpg Скачать фильм Бобры через торрент бесплантно в хорошем качестве Описание: Действие происходит в небольшом поселке Ольховка. Сюда, к продавщице Тамаре, приезжает Владимир Суворов, военный пенсионер, ... 9.9 10 10
Торрент: Зарегистрирован [2018-06-23 15:30] · скачан: 212 раз
Статус: √ проверено
Размер: 1.2 GB
Как cкачать? Как скачать Бобры через торрент | qTorrent

% Раздел Тема Автор DL S | L
Наши сериалы [ 8.74 GB ] Выхожу тебя искать / Сезон: 2 / Серии: 1-12 из 12 [2013 WEBRip] bober100 Скачать
1 | 0
Наши сериалы [ 4.73 GB ] Бобры / Сезон: 1 / Серии: 1-2 из 2 [2018 HDTV 1080p] [Русский] R.G.Generalfilm White Smoke Скачать
1 | 0
Наши сериалы [ 4.06 GB ] Бобры / Серии: 1-2 из 2 [2018 Мело WEB-DL 1080p] bober100 Скачать
1 | 0

28-11-2019 20:33  

Отключить всю рекламу на сайте

    Дорогой пользователь! Огромная просьба, поблагодарите релизера, оцените раздачу и оставьте свои комментарий, если Вы скачали Бобры через торрент бесплатно! Внесите свою лепту в развитие PiratBit!
    Комментировать посты могут только пользователи прошедшие не сложную регистрацию
    Показать сообщения:    

    Бобры через торрент
    Скачать бесплатно Бобры
    Бобры скачать торрент
    Бобры смотреть онлайн
    Cкачать фильм Бобры бесплатно
    Бобры скачать торрент в хорошем качестве
    Бобры смотреть онлайн бесплатно в хорошем качестве


    Вы не можете начинать темы
    Вы не можете отвечать на сообщения
    Вы не можете редактировать свои сообщения
    Вы не можете удалять свои сообщения
    Вы не можете голосовать в опросах
    Вы не можете прикреплять файлы к сообщениям
    Вы можете скачивать файлы