Ссылка на приватное зеркало нашего сайта всего за 1$. Внимание количество ограничено!!!

2 сезон

iTunes

1 сезон

1

2 сезон

2 сезон

iTunes

1 сезон

RePack

30

Новинка

ВАЖНО

ИГРА 18+

pack

RePack

MK11
pack

Забери бонус

RePack

jed

!!Акция!!

Alien_Rage

RePack

fifa19

RePack

Assassins Creed: Odyssey

RePack

NEED FOR SPEED™ PAYBACK

4 сезон

9 сезон

Бесстыжие 9 сезон

Все сериалы

все сериалы на PB.wtf

RePack

FAR CRY 5
  

Джуманджи: Зов джунглей / Jumanji: Welcome to the Jungle (Джейк Кэздан) [2017, фэнтези, боевик, комедия, приключения, семейный, BDRemux 1080p] DUB (rus, ukr) + 2xAVO pb.wtf

Джуманджи: Зов джунглей через торрент pb.wtf

Размер: 27.06 GB | Добавлен: 2 года 5 мес. назад | Торрент скачан:73 раза
Скачать  

24-06-2018 03:57 Джуманджи: Зов джунглей Скачать торрент  

Джуманджи: Зов джунглей / Jumanji: Welcome to the Jungle«Осторожно, засосёт»
Год выпуска: 2017
Страна: США
Жанр: Фэнтези, боевик, комедия, приключения, семейный
Продолжительность: 01:59:03
Перевод: Дублированный, авторский
Субтитры: Русские, английские, украинские
Режиссер: Джейк Кэздан
В ролях:

Дуэйн Джонсон (Spencer), Кевин Харт (Fridge), Джек Блэк (Bethany), Карен Гиллан (Martha), Риз Дэрби (Nigel), Бобби Каннавале (Van Pelt), Ник Джонас (Alex), Алекс Вулф (Young Spencer), Сер’Дариус Блэйн (Young Fridge), Мэдисон Исман (Young Bethany), Морган Тернер (Young Martha), Шон Бакстон (Jogger)
Описание:
Четверо подростков оказываются внутри игры «Джуманджи». Их ждет схватка с носорогами, черными мамбами, а на каждом шагу будет подстерегать бесконечная череда ловушек и головоломок. Чтобы пройти игру и остаться в живых, им придется перевоплотиться в персонажей игры: робкий и застенчивый Спенсер превращается в отважного и сильного исследователя, здоровяк Фридж — в коротышку, модница и красавица Беттани — в профессора, а неуклюжая и нескладная Марта становится бесстрашной и ловкой амазонкой. Друзьям придется привыкнуть к совершенно новым и таким непривычным для себя ролям и найти дорогу домой.
Рейтинг:

Качество: BDRemux 1080p
Формат: MKV
Видео: MPEG-4 AVC, 24.9 Мбит/с, 1920x1080, 23.976 Кадр/с
Аудио 1: Русский AC3 5.1, 640 kbps - Дубляж
Аудио 2: Русский DTS-HD MA 5.1, 2266 kbps - Авторский (Живов)
Аудио 3: Русский DTS-HD MA 5.1, 2269 kbps - Авторский (Яроцкий)
Аудио 4: Украинский AC3 2.0, 224 kbps - Дубляж
Аудио 5: Английский DTS-HD MA 5.1, 2248 kbps - Оригинал
Навигация по главам: есть
► Фильм посвящён памяти Робина Уильямса (1951-2014), сыгравшего главную роль в первом «Джуманджи».
► Съёмки фильма проходили на Гавайях.
► "Джуманджи» (Джо Джонстон, 1995) является одним из самых любимых фильмов актрисы Карен Гиллан.
Общее
Уникальный идентификатор : 180860072813314767041754699606284042249 (0x8810620C2026E5739B2155852B140009)
Полное имя : D:\РЕМУКС!!!!!\Джуманджи Зов джунглей. BDRemux.mkv
Формат : Matroska
Версия формата : Version 4 / Version 2
Размер файла : 27,1 Гбайт
Продолжительность : 1 ч. 59 м.
Режим общего битрейта : Переменный
Общий поток : 32,5 Мбит/сек
Название фильма : Джуманджи. Зов джунглей. BDRemux.thx:SPOMOPS
Дата кодирования : UTC 2018-06-23 14:15:13
Программа кодирования : mkvmerge v8.3.0 ('Over the Horizon') 64bit
Библиотека кодирования : libebml v1.3.1 + libmatroska v1.4.2

Видео
Идентификатор : 1
Формат : AVC
Формат/Информация : Advanced Video Codec
Профиль формата : High@L4.1
Настройки формата : CABAC / 2 Ref Frames
Параметр CABAC формата : Да
Параметр RefFrames формата : 2 кадра
Параметр GOP формата : M=1, N=10
Идентификатор кодека : V_MPEG4/ISO/AVC
Продолжительность : 1 ч. 59 м.
Вид битрейта : Переменный
Битрейт : 24,9 Мбит/сек
Ширина : 1920 пикселей
Высота : 1080 пикселей
Соотношение сторон : 16:9
Режим частоты кадров : Постоянный
Частота кадров : 23,976 (24000/1001) кадра/сек
Цветовое пространство : YUV
Субдискретизация насыщенности : 4:2:0
Битовая глубина : 8 бит
Тип развёртки : Прогрессивная
Бит/(Пиксели*Кадры) : 0.500
Размер потока : 20,7 Гбайт (76%)
Заголовок : Джуманджи: Зов джунглей
Язык : English
Default : Да
Forced : Нет

Аудио #1
Идентификатор : 2
Формат : AC-3
Формат/Информация : Audio Coding 3
Идентификатор кодека : A_AC3
Продолжительность : 1 ч. 59 м.
Вид битрейта : Постоянный
Битрейт : 640 Кбит/сек
Каналы : 6 каналов
Расположение каналов : Front: L C R, Side: L R, LFE
Частота : 48,0 КГц
Частота кадров : 31,250 кадров/сек (1536 SPF)
Битовая глубина : 16 бит
Метод сжатия : С потерями
Размер потока : 545 Мбайт (2%)
Заголовок : Русский ас3 - Дубляж
Язык : Russian
ServiceKind/String : Complete Main
Default : Да
Forced : Нет

Аудио #2
Идентификатор : 3
Формат : DTS
Формат/Информация : Digital Theater Systems
Профиль формата : MA / Core
Идентификатор кодека : A_DTS
Продолжительность : 1 ч. 59 м.
Вид битрейта : Переменный / Постоянный
Битрейт : 2266 Кбит/сек / 1509 Кбит/сек
Каналы : 6 каналов
Расположение каналов : Front: L C R, Side: L R, LFE
Частота : 48,0 КГц
Частота кадров : 93,750 кадра/сек (512 SPF)
Битовая глубина : 16 бит
Метод сжатия : Без потерь / Lossy
Размер потока : 1,88 Гбайт (7%)
Заголовок : Русский DTS-HD MA - АП (Живов)
Язык : Russian
Default : Нет
Forced : Нет

Аудио #3
Идентификатор : 4
Формат : DTS
Формат/Информация : Digital Theater Systems
Профиль формата : MA / Core
Идентификатор кодека : A_DTS
Продолжительность : 1 ч. 59 м.
Вид битрейта : Переменный / Постоянный
Битрейт : 2269 Кбит/сек / 1509 Кбит/сек
Каналы : 6 каналов
Расположение каналов : Front: L C R, Side: L R, LFE
Частота : 48,0 КГц
Частота кадров : 93,750 кадра/сек (512 SPF)
Битовая глубина : 16 бит
Метод сжатия : Без потерь / Lossy
Размер потока : 1,89 Гбайт (7%)
Заголовок : Русский DTS-HD MA - АП (Яроцкий)
Язык : Russian
Default : Нет
Forced : Нет

Аудио #4
Идентификатор : 5
Формат : AC-3
Формат/Информация : Audio Coding 3
Идентификатор кодека : A_AC3
Продолжительность : 1 ч. 59 м.
Вид битрейта : Постоянный
Битрейт : 224 Кбит/сек
Каналы : 2 канала
Расположение каналов : Front: L R
Частота : 48,0 КГц
Частота кадров : 31,250 кадров/сек (1536 SPF)
Битовая глубина : 16 бит
Метод сжатия : С потерями
Размер потока : 191 Мбайт (1%)
Заголовок : Украинский ас3 - Дубляж
Язык : Ukrainian
ServiceKind/String : Complete Main
Default : Нет
Forced : Нет

Аудио #5
Идентификатор : 6
Формат : DTS
Формат/Информация : Digital Theater Systems
Профиль формата : MA / Core
Идентификатор кодека : A_DTS
Продолжительность : 1 ч. 59 м.
Вид битрейта : Переменный / Постоянный
Битрейт : 2249 Кбит/сек / 1509 Кбит/сек
Каналы : 6 каналов
Расположение каналов : Front: L C R, Side: L R, LFE
Частота : 48,0 КГц
Частота кадров : 93,750 кадра/сек (512 SPF)
Битовая глубина : 16 бит
Метод сжатия : Без потерь / Lossy
Размер потока : 1,87 Гбайт (7%)
Заголовок : Английский DTS-HD MA - Оригинал
Язык : English
Default : Нет
Forced : Нет

Текст #1
Идентификатор : 7
Формат : UTF-8
Идентификатор кодека : S_TEXT/UTF8
Идентификатор кодека/Информация : UTF-8 Plain Text
Продолжительность : 1 ч. 55 м.
Битрейт : 0 бит/сек
ElementCount : 2
Размер потока : 110 байт (0%)
Заголовок : Русские - Forced
Язык : Russian
Default : Да
Forced : Нет

Текст #2
Идентификатор : 8
Формат : UTF-8
Идентификатор кодека : S_TEXT/UTF8
Идентификатор кодека/Информация : UTF-8 Plain Text
Продолжительность : 1 ч. 57 м.
Битрейт : 95 бит/сек
ElementCount : 1577
Размер потока : 82,2 Кбайт (0%)
Заголовок : Русские
Язык : Russian
Default : Нет
Forced : Нет

Текст #3
Идентификатор : 9
Формат : UTF-8
Идентификатор кодека : S_TEXT/UTF8
Идентификатор кодека/Информация : UTF-8 Plain Text
Продолжительность : 1 ч. 57 м.
Битрейт : 76 бит/сек
ElementCount : 1562
Размер потока : 66,4 Кбайт (0%)
Заголовок : Украинские
Язык : Ukrainian
Default : Нет
Forced : Нет

Текст #4
Идентификатор : 10
Формат : UTF-8
Идентификатор кодека : S_TEXT/UTF8
Идентификатор кодека/Информация : UTF-8 Plain Text
Продолжительность : 1 ч. 48 м.
Битрейт : 63 бит/сек
ElementCount : 1539
Размер потока : 50,9 Кбайт (0%)
Заголовок : Английские
Язык : English
Default : Нет
Forced : Нет

Текст #5
Идентификатор : 11
Формат : UTF-8
Идентификатор кодека : S_TEXT/UTF8
Идентификатор кодека/Информация : UTF-8 Plain Text
Продолжительность : 1 ч. 58 м.
Битрейт : 67 бит/сек
ElementCount : 1876
Размер потока : 58,6 Кбайт (0%)
Заголовок : Английские - SDH
Язык : English
Default : Нет
Forced : Нет

Меню
00:00:00.000 : en:00:00:00.000
00:07:18.104 : en:00:07:18.104
00:17:15.993 : en:00:17:15.993
00:23:23.235 : en:00:23:23.235
00:29:24.972 : en:00:29:24.972
00:42:28.546 : en:00:42:28.546
00:47:11.162 : en:00:47:11.162
00:54:26.722 : en:00:54:26.722
01:03:20.839 : en:01:03:20.839
01:10:21.801 : en:01:10:21.801
01:15:51.672 : en:01:15:51.672
01:24:10.087 : en:01:24:10.087
01:28:20.295 : en:01:28:20.295
01:33:48.414 : en:01:33:48.414
01:42:22.887 : en:01:42:22.887
01:48:31.839 : en:01:48:31.839
pb.wtf



Скачать Джуманджи: Зов джунглей через торрент https://a.radikal.ru/a16/1806/f6/dea2c8222f41.png Скачать фильм Джуманджи: Зов джунглей через торрент бесплантно в хорошем качестве Описание: Четверо подростков оказываются внутри игры «Джуманджи». Их ждет схватка с носорогами, черными мамбами, а на каждом шагу будет ... 8.8 10 4
Info! Золотая раздача, скачанное не засчитывается.
Торрент: Зарегистрирован [2018-06-24 03:57] · скачан: 73 раз
Статус: √ проверено
Размер: 27.06 GB
Как cкачать? Как скачать Джуманджи: Зов джунглей через торрент | qTorrent

28-11-2019 20:33  

Отключить всю рекламу на сайте

    Дорогой пользователь! Огромная просьба, поблагодарите релизера, оцените раздачу и оставьте свои комментарий, если Вы скачали Джуманджи: Зов джунглей через торрент бесплатно! Внесите свою лепту в развитие PiratBit!
    Комментировать посты могут только пользователи прошедшие не сложную регистрацию
    Показать сообщения:    

    Джуманджи: Зов джунглей через торрент
    Скачать бесплатно Джуманджи: Зов джунглей
    Джуманджи: Зов джунглей скачать торрент
    Джуманджи: Зов джунглей смотреть онлайн
    Cкачать фильм Джуманджи: Зов джунглей бесплатно
    Джуманджи: Зов джунглей скачать торрент в хорошем качестве
    Джуманджи: Зов джунглей смотреть онлайн бесплатно в хорошем качестве


    Вы не можете начинать темы
    Вы не можете отвечать на сообщения
    Вы не можете редактировать свои сообщения
    Вы не можете удалять свои сообщения
    Вы не можете голосовать в опросах
    Вы не можете прикреплять файлы к сообщениям
    Вы можете скачивать файлы