новый адрес пиратбит piratbit
Мега распродажа FORZA HORIZON 4 ULTIMATE+ВСЕ DLC+ОНЛАЙН всего за 499р. 349 руб. (супер цена). Внимание количество ограничено!!!

iTunes

1+1

iTunes

мы

iTunes

1

iTunes

Чернобыль

iTunes

Ральф против интернета

Лицензия

ПШазам

Лицензия

Игра престолов

Лицензия

30
pack

ВАЖНО

!!Акция!!

Alien_RageХит недели

RePack

Resident Evil 21

ИГРА 18+

pack

RePack

Metro:Exodus

!!Акция!!

Alien_Rage

RePack

fifa19

RePack

Assassins Creed: Odyssey

RePack

NEED FOR SPEED™ PAYBACK

3 сезон

9 сезон

Бесстыжие 9 сезон

Все сериалы

все сериалы на PB.wtf

RePack

FAR CRY 5
Ребята, катастрофически не хватает 1900р. для оплаты серверов за Октябрь (всвязи с блокировками трафик упал в 3 раза), 1-2р., выручайте.
  

Хорошо сидим (Мунид Закиров) [1986 г., Комедия, DVDRip] pb.wtf

Хорошо сидим через торрент pb.wtf

Размер: 1.37 GB | Добавлен: 1 год 4 мес. назад | Торрент скачан:22 раза
Скачать  

24-06-2018 05:39 Хорошо сидим Скачать торрент  

Хорошо сидим
Год выпуска: 1986
Страна: СССР
Жанр: Комедия
Продолжительность: 01:11:27
Субтитры: Отсутствуют

Режиссер: Мунид Закиров



В ролях: Олег Анофриев, Лариса Удовиченко, Роман Ткачук, Спартак Мишулин, Михаил Кокшенов, Евгений Моргунов, Юрий Медведев, Борислав Брондуков, Леонид Харитонов, Николай Скоробогатов, Виктор Ильичёв

Описание: Шеф, Ляля, начснаб, толкач и Эдик любят выпить и пошутить (а кто ж не любит?!). Когда же выпить нечего, а охота, как говорится – пуще неволи, приходится прибегать к изобретательности, которая, при вечно трясущихся руках и полном отсутствии ума, приводит кого в милицию, а кого - в больницу..

Качество: DVDRip
Формат: AVI
Видео кодек: XviD
Аудио кодек: AC3
Видео: Видео: XviD, 672x352 , 25.00fps, 2 342 Kbps
Аудио#1: AC3 , 2.0 , 48 kHz , 384 kbps
Общее
Полное имя : D:Horosho.Sidim.1986.DVDRip.avi
Формат : AVI
Формат/Информация : Audio Video Interleave
Размер файла : 1,37 Гбайт
Продолжительность : 1 ч. 11 м.
Общий поток : 2736 Кбит/сек
Программа кодирования : VirtualDubModRus 1.5.10.2 (build 2542/release)
Библиотека кодирования : VirtualDubMod build 2542/release

Видео
Идентификатор : 0
Формат : MPEG-4 Visual
Профиль формата : Advanced Simple@L5
Параметр BVOP формата : 1
Параметр QPel формата : Нет
Параметр GMC формата : Без точки перехода
Параметр матрицы формата : Default (MPEG)
Режим смешивания : Сжатый битовый поток
Идентификатор кодека : XVID
Идентификатор кодека/Подсказка : XviD
Продолжительность : 1 ч. 11 м.
Битрейт : 2342 Кбит/сек
Ширина : 672 пикселя
Высота : 352 пикселя
Соотношение сторон : 1,909
Частота кадров : 25,000 кадров/сек
Цветовое пространство : YUV
Субдискретизация насыщенности : 4:2:0
Битовая глубина : 8 бит
Тип развёртки : Прогрессивная
Метод сжатия : С потерями
Бит/(Пиксели*Кадры) : 0.396
Размер потока : 1,17 Гбайт (86%)
Библиотека кодирования : XviD 1.2.0.dev47 (UTC 2006-11-01)

Аудио
Идентификатор : 1
Формат : AC-3
Формат/Информация : Audio Coding 3
Расширение режима : CM (complete main)
Параметр Endianness формата : Big
Идентификатор кодека : 2000
Продолжительность : 1 ч. 11 м.
Вид битрейта : Постоянный
Битрейт : 384 Кбит/сек
Каналы : 2 канала
Расположение каналов : Front: L R
Частота : 48,0 КГц
Битовая глубина : 16 бит
Метод сжатия : С потерями
Размер потока : 196 Мбайт (14%)
Выравнивание : Разделение по промежуткам
Продолжительность промежутка : 40 мс. (1,00 видеокадр)
Время предзагрузки промежутка : 500 мс.

pb.wtf



Скачать Хорошо сидим через торрент https://c.radikal.ru/c36/1806/d9/e3c69c25c4e9.jpg Скачать фильм Хорошо сидим через торрент бесплантно в хорошем качестве Описание: Шеф, Ляля, начснаб, толкач и Эдик любят выпить и пошутить (а кто ж не любит?!). Когда же выпить нечего, а охота, как говорится – ... 10 10 7
Торрент: Зарегистрирован [2018-06-24 05:39] · скачан: 22 раз
Статус: √ проверено
Размер: 1.37 GB
Как cкачать? Как скачать Хорошо сидим через торрент | qTorrent

% Раздел Тема Автор DL S | L
Русское любительское видео [ 73 MB ] Когда ты сидишь на стульчике тебе так хорошо?! [2017 Homemade Ukraine SW. CamRip] Pir@tya2010 Скачать
1 | 0


>> Регистрируемся здесь <<






Отзывы и комментарии о схеме читаем и пишем здесь: ---> Отзывы и комментарии о схеме

Новые благодарочки в телеграм довольных пользователей:
скриншот   скриншот   скриншот   скриншот   скриншот

24-06-2018 07:20 Хорошо сидим Скачать торрент  

bubaRP, оформлено все правильно, за исключением скриншотов. Должны быть именно скриншоты, а не скринлист.
Правила оформления раздач в разделе «Фильмов», пункт 14.
Скриншоты добавил.
Благодарю за раздачу.
pb.wtf





Последний раз редактировалось: -Lexx- (2018-11-29 16:19), всего редактировалось 1 раз

24-06-2018 07:23 Хорошо сидим Скачать торрент  

Топик был перенесен из форума Оформление раздач (Кино, Видео и ТВ) в форум Кино СССР


-Lexx-pb.wtf



29-11-2018 11:31 Хорошо сидим Скачать торрент  

Спасибо за раздачу!pb.wtf



    Дорогой пользователь! Огромная просьба, поблагодарите релизера, оцените раздачу и оставьте свои комментарий, если Вы скачали Хорошо сидим через торрент бесплатно! Внесите свою лепту в развитие PiratBit!
    Комментировать посты могут только пользователи прошедшие не сложную регистрацию
    Показать сообщения:    

    Хорошо сидим через торрент
    Скачать бесплатно Хорошо сидим
    Хорошо сидим скачать торрент
    Хорошо сидим смотреть онлайн
    Cкачать фильм Хорошо сидим бесплатно
    Хорошо сидим скачать торрент в хорошем качестве
    Хорошо сидим смотреть онлайн бесплатно в хорошем качестве


    Вы не можете начинать темы
    Вы не можете отвечать на сообщения
    Вы не можете редактировать свои сообщения
    Вы не можете удалять свои сообщения
    Вы не можете голосовать в опросах
    Вы не можете прикреплять файлы к сообщениям
    Вы можете скачивать файлы