Ссылка на приватное зеркало всего за 1$. Внимание количество ограничено!!!

OK

1+1

iTunes

мы

OK

1

WEB-DLRip

Джокер

Пифагор

Ведьмак / The Witcher сериал

Лицензия

ПШазам

ОК

Оно 2

iTunes

30
pack

Вам бонус

ВАЖНО

!!Акция!!

Alien_RageХит недели

RePack

Resident Evil 21

ИГРА 18+

pack

RePack

jed

!!Акция!!

Alien_Rage

RePack

fifa19

RePack

Assassins Creed: Odyssey

RePack

NEED FOR SPEED™ PAYBACK

4 сезон

9 сезон

Бесстыжие 9 сезон

Все сериалы

все сериалы на PB.wtf

RePack

FAR CRY 5
  

Пираты Карибского моря: Мертвецы не рассказывают сказки / Pirates of the Caribbean: Dead Men Tell No Tales (Хоаким Роннинг, Эспен Сандберг) [2017, фэнтези, боевик, комедия, UHD BDRip 2160p] DUB (rus, ukr) pb.wtf

Пираты Карибского моря: Мертвецы не рассказывают сказки через торрент pb.wtf

Размер: 17.75 GB | Добавлен: 1 год 6 мес. назад | Торрент скачан:133 раза
Скачать  

24-06-2018 06:15 Пираты Карибского моря: Мертвецы не рассказывают сказки Скачать торрент  

Пираты Карибского моря: Мертвецы не рассказывают сказкиPirates of the Caribbean: Dead Men Tell No Tales«Все пираты должны умереть»
Год выпуска: 2017
Страна: США
Жанр: фэнтези, боевик, комедия, приключения
Продолжительность: 02:09:07
Перевод: Дублированный
Субтитры: Русские (форсированные, полные), английские (полные, SDH), украинские (форсированные)
Режиссер: Хоаким Роннинг , Эспен Сандберг
В ролях:

Джонни Депп (Captain Jack Sparrow), Хавьер Бардем (Captain Salazar), Джеффри Раш (Captain Hector Barbossa), Брентон Туэйтс (Henry Turner), Кая Скоделарио (Carina Smyth), Кевин МакНэлли (Gibbs), Голшифте Фарахани (Shansa), Дэвид Уэнэм (Scarfield), Стивен Грэм (Scrum), Энгус Барнетт (Mullroy), Мартин Клебба (Marty), Адам Браун (Cremble)
Описание:
Исчерпавший свою удачу капитан Джек Воробей обнаруживает, что за ним охотится его старый неприятель, ужасный капитан Салазар и его призрачные пираты. Они только что сбежали из Дьявольского треугольника и намерены уничтожить всех пиратов, включая Джека. Поможет спастись лишь могущественный артефакт - трезубец Посейдона, который дарует своему обладателю полный контроль над морями.
Рейтинг:

MPAA: PG-13 - Детям до 13 лет просмотр не желателен
Качество: UHD BDRip 2160p
Формат: MKV
Видео: HEVC, HDR, 17800 Кбит/с, 3840x1600, 23.976 кадр/с
Аудио 01: Russian / Dolby Digital Audio / 5.1 / 48 kHz / 640 kbps - Дублированный
Аудио 02: Ukrainian / Dolby Digital Audio / 5.1 / 48 kHz / 640 kbps - Дублированный
Аудио 03: English / Dolby Digital Audio / 5.1 / 48 kHz / 640 kbps - Original
Навигация по главам: есть
Это пятая часть серии фильмов «Пираты Карибского моря». Режиссерами фильма выступили Хоаким Роннинг и Эспен Сандберг, ранее не принимавших участия в работе над данной франшизой. Стоит отметить тот факт, что Роннинг и Сандберг уже работали вместе, режиссируя сериал «Марко Поло», который, в свою очередь, показал весьма неплохие результаты.
Выход фильма, изначально планировавшийся в 2015 году, из-за проблем со сценарием и бюджетных вопросов был отложен сначала до 2016, а затем до 2017 года.
Съёмки начались в Австралии в феврале 2015 года после того, как правительство Австралии предложило студии Disney около 20 миллионов долларов налоговых льгот.
Фильм снят в форматах Disney Digital 3D, RealD 3D, и IMAX 3D.
Это первое появления Орландо Блума в «пиратах» за 10 лет после «Пираты Карибского моря: На краю света».
На роль возлюбленной Брентона Туэйтеса рассматривали Люси Бойнтон, Габриэллу Уайлд, Дженну Тиам, Каю Скоделарио и Александру Доулинг. В результате было решено утвердить Скоделарио.
Во время съёмок в Австралии Джонни Депп повредил руку, после чего вернулся в США.
Кира Найтли заявила, что не собирается возвращаться во франшизу, она также добавила, что съёмки во франшизе были прекрасным периодом, однако это отняло у неё 5 лет жизни, и она просто не видит себя снова в той же роли.
В одном из интервью Орландо Блум назвал будущий фильм «мягкой перезагрузкой» предыдущих частей франшизы.
На роль режиссёра фильма рассматривались кандидатуры Фредрика Бонда, Тима Бёртона, Альфонсо Куарона, Шона Леви, Сэма Рэйми, Руперта Сандерса и Криса Вайца.
Единственными актёрами, снявшимися во всех частях франшизы, стали Джонни Депп, Джеффри Раш и Кевин МакНэлли.
На роль Генри рассматривались Энсела Эльгорта, Брентона Туэйтса, Тэрона Эджертона, Джорджа МакКея и Сэма Кили. В итоге было решено утвердить Туэйтеса.
Франшиза о пиратах Карибского моря занимает 12-ю строчку в списке самых кассовых в истории.
Дэвид Уэнэм, в роли Скарфилда, и Орландо Блум, исполнитель роли Уилла Тёрнера, ранее снимались двух фильмах трилогии «Властелин колец». Уэнэм сыграл Фарамира, а Блум — Леголаса в фильмах «Властелин колец: Две крепости» и «Властелин колец: Возвращение Короля».
Дэвид Уэнэм ранее снимался с Джонни Деппом в фильме «Джонни Д.».
Джонни Депп и Хавьер Бардем вместе сыграли в фильме «Пока не наступит ночь».
General
Complete name : Pirates_Caribbean.Dead.Men.Tell.No.Tales.2017.2160p.UHD.HDR.x265.BT.2020.10bits.mkv
Format : Matroska
Format version : Version 4 / Version 2
File size : 17.7 GiB
Duration : 2 h 9 min
Overall bit rate : 19.7 Mb/s
Movie name : Pirates.of.the.Caribbean.Dead.Men.Tell.No.Tales.2017.2160p.UHD.HDR.x265.BT.2020.10bits -encoded TERMiNAL
Encoded date : UTC 2017-11-12 14:41:18
Writing application : mkvmerge v17.0.0 ('Be Ur Friend') 64-bit
Writing library : libebml v1.3.5 + libmatroska v1.4.8

Video
ID : 1
Format : HEVC
Format/Info : High Efficiency Video Coding
Format profile : Main 10@L5.1@High
Codec ID : V_MPEGH/ISO/HEVC
Duration : 2 h 9 min
Bit rate : 17.8 Mb/s
Width : 3 840 pixels
Height : 1 600 pixels
Display aspect ratio : 2.40:1
Frame rate mode : Constant
Frame rate : 23.976 (24000/1001) FPS
Color space : YUV
Chroma subsampling : 4:2:0 (Type 2)
Bit depth : 10 bits
Bits/(Pixel*Frame) : 0.121
Stream size : 16.0 GiB (90%)
Title : Pirates.of.the.Caribbean.Dead.Men.Tell.No.Tales.2017.2160p.UHD.HDR.x265.BT.2020.10bits -TERMiNAL
Writing library : x265 2.5+38-8a121d8cc134:[Windows][GCC 6.2.1][64 bit] 10bit
Encoding settings : cpuid=1173503 / frame-threads=4 / numa-pools=16 / wpp / no-pmode / no-pme / no-psnr / no-ssim / log-level=2 / input-csp=1 / input-res=3840x1600 / interlace=0 / total-frames=185724 / level-idc=51 / high-tier=1 / uhd-bd=0 / ref=4 / no-allow-non-conformance / repeat-headers / annexb / aud / hrd / info / hash=0 / no-temporal-layers / no-open-gop / min-keyint=1 / keyint=24 / bframes=4 / b-adapt=2 / b-pyramid / bframe-bias=0 / rc-lookahead=25 / lookahead-slices=4 / scenecut=40 / no-intra-refresh / ctu=64 / min-cu-size=8 / rect / no-amp / max-tu-size=32 / tu-inter-depth=1 / tu-intra-depth=1 / limit-tu=0 / rdoq-level=2 / dynamic-rd=0.00 / no-ssim-rd / signhide / no-tskip / nr-intra=0 / nr-inter=0 / no-constrained-intra / no-strong-intra-smoothing / max-merge=3 / limit-refs=3 / limit-modes / me=3 / subme=3 / merange=57 / temporal-mvp / weightp / no-weightb / no-analyze-src-pics / deblock=-3:-3 / no-sao / no-sao-non-deblock / rd=4 / no-early-skip / rskip / no-fast-intra / no-tskip-fast / no-cu-lossless / no-b-intra / no-splitrd-skip / rdpenalty=0 / psy-rd=2.00 / psy-rdoq=1.00 / no-rd-refine / analysis-reuse-mode=0 / no-lossless / cbqpoffs=0 / crqpoffs=0 / rc=crf / crf=17.0 / qcomp=0.60 / qpstep=4 / stats-write=0 / stats-read=0 / vbv-maxrate=160000 / vbv-bufsize=160000 / vbv-init=0.9 / crf-max=0.0 / crf-min=0.0 / ipratio=1.40 / pbratio=1.30 / aq-mode=1 / aq-strength=1.00 / cutree / zone-count=0 / no-strict-cbr / qg-size=32 / no-rc-grain / qpmax=69 / qpmin=0 / no-const-vbv / sar=1 / overscan=0 / videoformat=5 / range=0 / colorprim=9 / transfer=16 / colormatrix=9 / chromaloc=1 / chromaloc-top=2 / chromaloc-bottom=2 / display-window=0 / master-display=G(13250,34500)B(7500,3000)R(34000,16000)WP(15635,16450)L(10000000,50) / max-cll=0,0 / min-luma=0 / max-luma=1023 / log2-max-poc-lsb=8 / vui-timing-info / vui-hrd-info / slices=1 / opt-qp-pps / opt-ref-list-length-pps / no-multi-pass-opt-rps / scenecut-bias=0.05 / no-opt-cu-delta-qp / no-aq-motion / hdr / hdr-opt / no-dhdr10-opt / analysis-reuse-level=5 / scale-factor=0 / refine-intra=0 / refine-inter=0 / refine-mv=0 / no-limit-sao / ctu-info=0 / no-lowpass-dct
Default : Yes
Forced : No
Color range : Limited
Color primaries : BT.2020
Transfer characteristics : SMPTE ST 2084
Matrix coefficients : BT.2020 non-constant
Mastering display color pri : R: x=0.680000 y=0.320000, G: x=0.265000 y=0.690000, B: x=0.150000 y=0.060000, White point: x=0.312700 y=0.329000
Mastering display luminance : min: 0.0050 cd/m2, max: 1000.0000 cd/m2

Audio #1
ID : 2
Format : AC-3
Format/Info : Audio Coding 3
Format settings, Endianness : Big
Codec ID : A_AC3
Duration : 2 h 9 min
Bit rate mode : Constant
Bit rate : 640 kb/s
Channel(s) : 6 channels
Channel positions : Front: L C R, Side: L R, LFE
Sampling rate : 48.0 kHz
Frame rate : 31.250 FPS (1536 spf)
Bit depth : 16 bits
Compression mode : Lossy
Stream size : 591 MiB (3%)
Language : Russian
Service kind : Complete Main
Default : Yes
Forced : No

Audio #2
ID : 3
Format : AC-3
Format/Info : Audio Coding 3
Format settings, Endianness : Big
Codec ID : A_AC3
Duration : 2 h 9 min
Bit rate mode : Constant
Bit rate : 640 kb/s
Channel(s) : 6 channels
Channel positions : Front: L C R, Side: L R, LFE
Sampling rate : 48.0 kHz
Frame rate : 31.250 FPS (1536 spf)
Bit depth : 16 bits
Compression mode : Lossy
Stream size : 591 MiB (3%)
Language : Ukrainian
Service kind : Complete Main
Default : No
Forced : No

Audio #3
ID : 4
Format : AC-3
Format/Info : Audio Coding 3
Format settings, Endianness : Big
Codec ID : A_AC3
Duration : 2 h 9 min
Bit rate mode : Constant
Bit rate : 640 kb/s
Channel(s) : 6 channels
Channel positions : Front: L C R, Side: L R, LFE
Sampling rate : 48.0 kHz
Frame rate : 31.250 FPS (1536 spf)
Bit depth : 16 bits
Compression mode : Lossy
Stream size : 591 MiB (3%)
Language : English
Service kind : Complete Main
Default : No
Forced : No

Text #1
ID : 5
Format : UTF-8
Codec ID : S_TEXT/UTF8
Codec ID/Info : UTF-8 Plain Text
Duration : 1 h 59 min
Bit rate : 1 b/s
Count of elements : 17
Stream size : 917 Bytes (0%)
Title : forced
Language : Russian
Default : Yes
Forced : Yes

Text #2
ID : 6
Format : UTF-8
Codec ID : S_TEXT/UTF8
Codec ID/Info : UTF-8 Plain Text
Duration : 1 h 59 min
Bit rate : 71 b/s
Count of elements : 1318
Stream size : 62.7 KiB (0%)
Title : full
Language : Russian
Default : No
Forced : No

Text #3
ID : 7
Format : UTF-8
Codec ID : S_TEXT/UTF8
Codec ID/Info : UTF-8 Plain Text
Duration : 1 h 59 min
Bit rate : 1 b/s
Count of elements : 17
Stream size : 917 Bytes (0%)
Title : forced
Language : Ukrainian
Default : No
Forced : No

Text #4
ID : 8
Format : UTF-8
Codec ID : S_TEXT/UTF8
Codec ID/Info : UTF-8 Plain Text
Duration : 1 h 55 min
Bit rate : 45 b/s
Count of elements : 1435
Stream size : 38.2 KiB (0%)
Title : full
Language : English
Default : No
Forced : No

Text #5
ID : 9
Format : UTF-8
Codec ID : S_TEXT/UTF8
Codec ID/Info : UTF-8 Plain Text
Duration : 2 h 7 min
Bit rate : 48 b/s
Count of elements : 1772
Stream size : 45.7 KiB (0%)
Title : SDH
Language : English
Default : No
Forced : No

Menu
00:00:00.000 : en:00:00:00.000
00:05:49.558 : en:00:05:49.558
00:08:34.264 : en:00:08:34.264
00:13:40.862 : en:00:13:40.862
00:16:29.197 : en:00:16:29.197
00:22:33.894 : en:00:22:33.894
00:25:19.309 : en:00:25:19.309
00:28:06.143 : en:00:28:06.143
00:31:41.817 : en:00:31:41.817
00:33:44.856 : en:00:33:44.856
00:37:02.095 : en:00:37:02.095
00:42:27.754 : en:00:42:27.754
00:49:09.113 : en:00:49:09.113
00:54:00.320 : en:00:54:00.320
00:57:19.436 : en:00:57:19.436
01:00:38.760 : en:01:00:38.760
01:08:29.981 : en:01:08:29.981
01:11:57.063 : en:01:11:57.063
01:16:50.981 : en:01:16:50.981
01:19:27.513 : en:01:19:27.513
01:25:04.850 : en:01:25:04.850
01:27:42.215 : en:01:27:42.215
01:31:43.832 : en:01:31:43.832
01:38:22.855 : en:01:38:22.855
01:42:36.817 : en:01:42:36.817
01:47:23.604 : en:01:47:23.604
01:52:58.730 : en:01:52:58.730
01:59:09.976 : en:01:59:09.976
pb.wtf



Скачать Пираты Карибского моря: Мертвецы не рассказывают сказки через торрент https://a.radikal.ru/a28/1806/10/f8771755f843.png Скачать фильм Пираты Карибского моря: Мертвецы не рассказывают сказки через торрент бесплантно в хорошем качестве Описание: Исчерпавший свою удачу капитан Джек Воробей обнаруживает, что за ним охотится его старый неприятель, ужасный капитан Салазар и ... 10 10 7
Info! Золотая раздача, скачанное не засчитывается.
Торрент: Зарегистрирован [2018-06-24 06:15] · скачан: 133 раз
Статус: √ проверено
Размер: 17.75 GB
Как cкачать? Как скачать Пираты Карибского моря: Мертвецы не рассказывают сказки через торрент | qTorrent

% Раздел Тема Автор DL S | L
Ultra HD (UHD: 2K, 4K, 8K) — видео сверхвысокой чёткости [ 67.61 GB ] Пираты Карибского моря: Мертвецы не рассказывают сказки / Pirates of the Caribbean: Dead Men Tell No Tales [2017 UHD BDRemux 2160p] DUB [] + 2xAVO sheker187 Скачать
1 | 0
Фильмы с авторской озвучкой [ 2.17 GB ] Пираты Карибского моря: Мертвецы не рассказывают сказки / Pirates of the Caribbean: Dead Men Tell No Tales [2017 BDRip] 2x[AVO] killermax2013 Скачать
2 | 0
Фильмы 2017 [DVDrip, WEB-DLRip, HDrip] (DUB, MVO) [ 2.18 GB ] Пираты Карибского моря: Мертвецы не рассказывают сказки / Pirates of the Caribbean: Dead Men Tell No Tales [2017 BDRip] - [] Twi7ter Скачать
8 | 0
Фильмы (HD 720p, 1080p) (48-60 fps) [ 7.14 GB ] Пираты Карибского моря: Мертвецы не рассказывают сказки / Pirates of the Caribbean: Dead Men Tell No Tales [2017 BDRip 720p 60 fps от еnvy / NNNB] DUB еnvy Скачать
10 | 0
Ultra HD (UHD: 2K, 4K, 8K) — видео сверхвысокой чёткости [ 52.38 GB ] Пираты Карибского моря: Мертвецы не рассказывают сказки / Pirates of the Caribbean: Dead Men Tell No Tales [2017 UHD BDRemux 2160p] DUB [] bober100 Скачать
1 | 0
3D Фильмы [ 17.96 GB ] Пираты Карибского моря: Мертвецы не рассказывают сказки в 3Д / Pirates of the Caribbean: Dead Men Tell No Tales 3D [2017 BDrip 1080p] OverUnder / Вертикальная стереопара serega768 Скачать
1 | 0
Фильмы [HD 720p, 1080p] (Хороший звук DUB, MVO) [ 11.53 GB ] Пираты Карибского моря: Мертвецы не рассказывают сказки / Pirates of the Caribbean: Dead Men Tell No Tales [2017 BDRip 1080р] DUB [] -Lexx- Скачать
3 | 0

28-11-2019 20:33  

Отключить всю рекламу на сайте

    Дорогой пользователь! Огромная просьба, поблагодарите релизера, оцените раздачу и оставьте свои комментарий, если Вы скачали Пираты Карибского моря: Мертвецы не рассказывают сказки через торрент бесплатно! Внесите свою лепту в развитие PiratBit!
    Комментировать посты могут только пользователи прошедшие не сложную регистрацию
    Показать сообщения:    

    Пираты Карибского моря: Мертвецы не рассказывают сказки через торрент
    Скачать бесплатно Пираты Карибского моря: Мертвецы не рассказывают сказки
    Пираты Карибского моря: Мертвецы не рассказывают сказки скачать торрент
    Пираты Карибского моря: Мертвецы не рассказывают сказки смотреть онлайн
    Cкачать фильм Пираты Карибского моря: Мертвецы не рассказывают сказки бесплатно
    Пираты Карибского моря: Мертвецы не рассказывают сказки скачать торрент в хорошем качестве
    Пираты Карибского моря: Мертвецы не рассказывают сказки смотреть онлайн бесплатно в хорошем качестве


    Вы не можете начинать темы
    Вы не можете отвечать на сообщения
    Вы не можете редактировать свои сообщения
    Вы не можете удалять свои сообщения
    Вы не можете голосовать в опросах
    Вы не можете прикреплять файлы к сообщениям
    Вы можете скачивать файлы