Ссылка на приватное зеркало нашего сайта всего за 1$. Внимание количество ограничено!!!

2 сезон

iTunes

1 сезон

1

iTunes

iTunes

iTunes

1 сезон

RePack

30

ИГРА 18+

pack

ВАЖНО

!!Акция!!

Alien_RageХит недели

RePack

MK11
pack

Забери бонус

RePack

jed

!!Акция!!

Alien_Rage

RePack

fifa19

RePack

Assassins Creed: Odyssey

RePack

NEED FOR SPEED™ PAYBACK

4 сезон

9 сезон

Бесстыжие 9 сезон

Все сериалы

все сериалы на PB.wtf

RePack

FAR CRY 5
  

Пила 4 / Saw IV [Unrated Director's Cut] (Даррен Линн Боусман / Darren Lynn Bousman ) [1080p] [2007 г., Ужасы, триллер, мистика, BDRip] pb.wtf

Пила 4 через торрент pb.wtf

Размер: 8.96 GB | Добавлен: 9 лет назад | Торрент скачан:7 раз
Скачать  

02-12-2010 20:43 Пила 4 Скачать торрент  

Пила 4 / Saw IV [Unrated Director's Cut]
Год выпуска: 2007
Страна: США, Lions Gate
Жанр: Ужасы, триллер, мистика
Продолжительность: 01:35:31
Перевод: Профессиональный (полное дублирование)
Русские субтитры: нет
Режиссер: Даррен Линн Боусман / Darren Lynn Bousman
В ролях:Тобин Белл, Костас Мандилор, Скотт Паттерсон, Бетси Расселл, Лирик Бент, Афена Карканис, Джастин Луис, Саймон Рейнольдс, Донни Уолберг, Энгус МакФадьен, Шоуни Смит, Бахар Сумех, Дина Мейер, Майк Рилба, Марти Адамс, Сарэн Бойлэн, Билли Отис, Джеймс Ван Паттен, Дэвид Бойс, Кевин Раштон, Джулиан Ричингс
Описание:Получив известие об убийстве детектива Кэрри, два опытных сотрудника ФБР, агент Стрэм и агент Перез, прибывают в полицейский участок, чтобы помочь старому детективу Хоффману проанализировать последнюю ужасную игру Пилы и соединить все части головоломки. Однако, когда капитан Ригг, последний полицейский, нетронутый Пилой, оказывается похищен и вовлечен в чудовищную игру маньяка, у офицера остается лишь девяносто минут, чтобы обнаружить ряд взаимосвязанных ловушек…или оказаться перед лицом их беспощадных последствий. В то время, как Ригга по всему городу преследуют следы трупов, детектив Хоффман и ФБР обнаруживают глубоко спрятанные ключи к разгадке, которые приводят их назад к бывшей жене Пилы — Джил.
Доп. информация: В русской дороге есть места без перевода
Качество: BDRip
Формат: MKV
Видео кодек: H.264
Аудио кодек: DTS
Видео: 1920x1080, x264, 23.976 fps, ~10397 kbps
Аудио: Русский DTS 5.1, 1536 kbps; Aнглийский DTS 5.1, 1536 kbps
General
Complete name : D:\HD Видео\Пила трилогия\Saw II\Saw.II.2005.Blu-ray.1080p.DTS.x264CtrlHD.mkv
Format : Matroska
File size : 10.1 GiB
Duration : 1h 34mn
Overall bit rate : 15.3 Mbps
Encoded date : UTC 2007-12-07 19:47:00
Writing application : mkvmerge v2.1.0 ('Another Place To Fall') built on Aug 19 2007 13:40:07
Writing library : libebml v0.7.7 + libmatroska v0.8.1
Video
ID : 1
Format : AVC
Format/Info : Advanced Video Codec
Format profile : High@L5.1
Format settings, CABAC : Yes
Format settings, ReFrames : 7 frames
Muxing mode : Container profile=Unknown@5.1
Codec ID : V_MPEG4/ISO/AVC
Duration : 1h 34mn
Bit rate : 13.8 Mbps
Width : 1 920 pixels
Height : 1 080 pixels
Display aspect ratio : 16:9
Frame rate : 23.976 fps
Color space : YUV
Chroma subsampling : 4:2:0
Bit depth : 8 bits
Scan type : Progressive
Bits/(Pixel*Frame) : 0.278
Stream size : 8.92 GiB (88%)
Writing library : x264 core 56 svn-680
Encoding settings : cabac=1 / ref=4 / deblock=1:-3:-3 / analyse=0x3:0x133 / me=umh / subme=7 / brdo=1 / mixed_ref=1 / me_range=16 / chroma_me=1 / trellis=1 / 8x8dct=1 / cqm=2 / deadzone=21,11 / chroma_qp_offset=0 / threads=6 / nr=0 / decimate=1 / mbaff=0 / bframes=6 / b_pyramid=1 / b_adapt=1 / b_bias=0 / direct=3 / wpredb=1 / bime=1 / keyint=250 / keyint_min=25 / scenecut=40(pre) / rc=2pass / bitrate=13806 / ratetol=1.0 / rceq='blurCplx^(1-qComp)' / qcomp=0.60 / qpmin=10 / qpmax=51 / qpstep=4 / cplxblur=20.0 / qblur=0.5 / ip_ratio=1.40 / pb_ratio=1.30 / aq=1:0.3:15.0
Language : English
Audio
ID : 2
Format : DTS
Format/Info : Digital Theater Systems
Codec ID : A_DTS
Duration : 1h 34mn
Bit rate mode : Constant
Bit rate : 1 510 Kbps
Channel(s) : 6 channels
Channel positions : Front: L C R, Side: L R, LFE
Sampling rate : 48.0 KHz
Bit depth : 24 bits
Stream size : 1 021 MiB (10%)
Language : Russian

pb.wtf



Скачать Пила 4 через торрент http://i4.imageban.ru/out/2010/11/16/ab08d83d8a53ebb94e1a62b42d3c5e6e.jpg Скачать фильм Пила 4 через торрент бесплантно в хорошем качестве Описание:Получив известие об убийстве детектива Кэрри, два опытных сотрудника ФБР, агент Стрэм и агент Перез, прибывают в полицейский ... 9 10 1
Info! Золотая раздача, скачанное не засчитывается.
Торрент: Зарегистрирован [2010-12-02 20:43] · скачан: 7 раз
Статус: √ проверено
Размер: 8.96 GB
Как cкачать? Как скачать Пила 4 через торрент | qTorrent

% Раздел Тема Автор DL S | L
Фильмы [HD 720p, 1080p] (Хороший звук DUB, MVO) [ 4.37 GB ] Пила 4 / Saw IV [2007 BDRip 720p ] [Director's Cut] winchester00100010 Скачать
1 | 0
Фильмы (Blu-ray, BD-Remux, HDDVD) [ 28.13 GB ] Пила 4 / Saw IV [2007 Blu-ray ] Бумер Скачать
1 | 0

28-11-2019 20:33  

Отключить всю рекламу на сайте

11-07-2013 21:08 Пила 4 Скачать торрент  

Так себе!pb.wtf



02-08-2014 13:27 Пила 4 Скачать торрент  

Встаньте на раздачу, пожалуйста)pb.wtf



    Дорогой пользователь! Огромная просьба, поблагодарите релизера, оцените раздачу и оставьте свои комментарий, если Вы скачали Пила 4 через торрент бесплатно! Внесите свою лепту в развитие PiratBit!
    Комментировать посты могут только пользователи прошедшие не сложную регистрацию
    Показать сообщения:    

    Пила 4 через торрент
    Скачать бесплатно Пила 4
    Пила 4 скачать торрент
    Пила 4 смотреть онлайн
    Cкачать фильм Пила 4 бесплатно
    Пила 4 скачать торрент в хорошем качестве
    Пила 4 смотреть онлайн бесплатно в хорошем качестве


    Вы не можете начинать темы
    Вы не можете отвечать на сообщения
    Вы не можете редактировать свои сообщения
    Вы не можете удалять свои сообщения
    Вы не можете голосовать в опросах
    Вы не можете прикреплять файлы к сообщениям
    Вы можете скачивать файлы