Ссылка на приватное зеркало нашего сайта всего за 1$. Внимание количество ограничено!!!

2 сезон

iTunes

1 сезон

1

iTunes

iTunes

iTunes

1 сезон

RePack

30

ИГРА 18+

pack

ВАЖНО

!!Акция!!

Alien_RageХит недели

RePack

MK11
pack

Забери бонус

RePack

jed

!!Акция!!

Alien_Rage

RePack

fifa19

RePack

Assassins Creed: Odyssey

RePack

NEED FOR SPEED™ PAYBACK

4 сезон

9 сезон

Бесстыжие 9 сезон

Все сериалы

все сериалы на PB.wtf

RePack

FAR CRY 5
  

Бобры / Серии: 1-2 из 2 (Юрий Попович) [2018, Мелодрама, WEB-DL 1080p] pb.wtf

Бобры через торрент pb.wtf

Размер: 4.06 GB | Добавлен: 2 года 3 мес. назад | Торрент скачан:64 раза
Скачать  

24-06-2018 06:58 Бобры Скачать торрент  

Бобры
Год выпуска: 2018
Страна: Россия
Жанр: Мелодрама
Продолжительность: ~ 00:48:00
Субтитры: отсутствуют

Режиссер: Юрий Попович



В ролях:

Константин Соловьёв, Екатерина Вуличенко, Фёдор Лавров, Владислав Ветров, Денис Беспалый, Глеб Козляев

Описание:

Действие происходит в небольшом поселке Ольховка. Сюда, к продавщице Тамаре, приезжает Владимир Суворов, военный пенсионер, отдавший 25 лет службе в ВВС. Вначале она недоумевает, зачем он приехал, ведь курортные романы должны там и заканчиваться, а он сутки гнал машину из Москвы, это что, разведка боем? Но потом сознается, что она тоже забыть его не может. Она решает, что им надо некоторое время пожить вместе, посмотреть друг на друга, а потом принять решение, как дальше быть. А то, что у нее мужик незнакомый дома ночует, неважно, ведь к ней в поселке особое отношение, она из семьи мэра. В Ольховке свой мир. Правит всем семейство Бобров, это фамилия такая. У всех жителей есть работа, лучшие в области врачи, преступности практически нет. Тут все тихо, по-семейному, каждую субботу люди приходят в клуб, смотрят кино. По соседству с Тамарой живет писатель Кругликов. Он со своими гонорарами мог бы жить в Европе, но выбрал Ольховку. По его словам, здесь настоящая Россия, которую городские интеллигенты не знают и боятся. На первый взгляд полная идиллия, живи и радуйся. Но приживется ли здесь Суворов или нет, решать будет не он, и не Тамара, а мэр, Николай Бобер, ведь, здесь его территория, его законы. Сможет ли Суворов, привыкший всю жизнь выполнять приказы, жить по уставу, по которому живет вся Ольховка...

Качество: WEB-DL 1080p
Формат: MKV

Видео: 1920х1080 (16:9), 25 fps, AVC MPEG-4 (x264), High@L4.0 ~ 6000 kbps avg, 0.096 bit/pixel
Аудио: 48 kHz, AC3, 2 ch, 192 kbps avg
скриншот   скриншот   скриншот   скриншот  

Общее
Уникальный идентификатор : 170383557821819238292495930562254361582 (0x802EADFA8790A5B5A0DF33E9463E53EE)
Полное имя : D:\Bobry.2017.WEB-DL.(1080p).Nikolspup\Bobry.(01.seriya.iz.02).2017.WEB-DL.(1080p).Nikolspup.mkv
Формат : Matroska
Версия формата : Version 4 / Version 2
Размер файла : 1,97 Гбайт
Продолжительность : 45 м. 36 с.
Режим общего битрейта : Постоянный
Общий поток : 6186 Кбит/сек
Дата кодирования : UTC 2018-06-23 20:11:56
Программа кодирования : mkvmerge v7.8.0 ('River Man') 32bit built on Mar 27 2015 16:18:02
Библиотека кодирования : libebml v1.3.1 + libmatroska v1.4.2

Видео
Идентификатор : 1
Формат : AVC
Формат/Информация : Advanced Video Codec
Профиль формата : High@L4.1
Параметр CABAC формата : Нет
Параметр RefFrames формата : 2 кадра
Идентификатор кодека : V_MPEG4/ISO/AVC
Продолжительность : 45 м. 35 с.
Вид битрейта : Постоянный
Битрейт : 6000 Кбит/сек
Ширина : 1920 пикселей
Высота : 1080 пикселей
Соотношение сторон : 16:9
Режим частоты кадров : Постоянный
Частота кадров : 25,000 кадров/сек
Стандарт вещания : PAL
Цветовое пространство : YUV
Субдискретизация насыщенности : 4:2:0
Битовая глубина : 8 бит
Тип развёртки : Прогрессивная
Бит/(Пиксели*Кадры) : 0.116
Размер потока : 1,91 Гбайт (97%)
Default : Да
Forced : Нет
Цветовой диапазон : Limited
Основные цвета : BT.709
Характеристики трансфера : BT.709
Коэффициенты матрицы : BT.709

Аудио
Идентификатор : 2
Формат : AC-3
Формат/Информация : Audio Coding 3
Расширение режима : CM (complete main)
Параметр Endianness формата : Big
Идентификатор кодека : A_AC3
Продолжительность : 45 м. 36 с.
Вид битрейта : Постоянный
Битрейт : 192 Кбит/сек
Каналы : 2 канала
Расположение каналов : Front: L R
Частота : 48,0 КГц
Частота кадров : 31,250 кадров/сек (1536 spf)
Метод сжатия : С потерями
Размер потока : 62,6 Мбайт (3%)
Язык : Russian
Default : Да
Forced : Нет

pb.wtf



Скачать Бобры через торрент http://lostpix.com/img/2018-06/23/mqj72ihngeuh35my16362komf.jpg Скачать фильм Бобры через торрент бесплантно в хорошем качестве Описание: Действие происходит в небольшом поселке Ольховка. Сюда, к продавщице Тамаре, приезжает Владимир Суворов, военный пенсионер, ... 7.3 10 3
Торрент: Зарегистрирован [2018-06-24 06:58] · скачан: 64 раз
Статус: √ проверено
Размер: 4.06 GB
Как cкачать? Как скачать Бобры через торрент | qTorrent

% Раздел Тема Автор DL S | L
Наши сериалы [ 8.74 GB ] Выхожу тебя искать / Сезон: 2 / Серии: 1-12 из 12 [2013 WEBRip] bober100 Скачать
1 | 0
Наши сериалы [ 4.73 GB ] Бобры / Сезон: 1 / Серии: 1-2 из 2 [2018 HDTV 1080p] [Русский] R.G.Generalfilm White Smoke Скачать
1 | 0
Наши сериалы [ 1.2 GB ] Бобры / Серии: 1-2 из 2 [2018 Мело SATRip] bober100 Скачать
1 | 0

28-11-2019 20:33  

Отключить всю рекламу на сайте

25-06-2018 15:40 Бобры Скачать торрент  

это не веб дл а вебрип на скринах есть лого каналаpb.wtf



    Дорогой пользователь! Огромная просьба, поблагодарите релизера, оцените раздачу и оставьте свои комментарий, если Вы скачали Бобры через торрент бесплатно! Внесите свою лепту в развитие PiratBit!
    Комментировать посты могут только пользователи прошедшие не сложную регистрацию
    Показать сообщения:    

    Бобры через торрент
    Скачать бесплатно Бобры
    Бобры скачать торрент
    Бобры смотреть онлайн
    Cкачать фильм Бобры бесплатно
    Бобры скачать торрент в хорошем качестве
    Бобры смотреть онлайн бесплатно в хорошем качестве


    Вы не можете начинать темы
    Вы не можете отвечать на сообщения
    Вы не можете редактировать свои сообщения
    Вы не можете удалять свои сообщения
    Вы не можете голосовать в опросах
    Вы не можете прикреплять файлы к сообщениям
    Вы можете скачивать файлы