Ссылка на приватное зеркало всего за 1$. Внимание количество ограничено!!!

iTunes

iTunes

iTunes

1

iTunes

iTunes

iTunes

WEBRip

iTunes

30
pack

$ от Little Big

ВАЖНО

!!Акция!!

Alien_RageХит недели

RePack

Resident Evil 21

ИГРА 18+

pack

RePack

jed

!!Акция!!

Alien_Rage

RePack

fifa19

RePack

Assassins Creed: Odyssey

RePack

NEED FOR SPEED™ PAYBACK

4 сезон

9 сезон

Бесстыжие 9 сезон

Все сериалы

все сериалы на PB.wtf

RePack

FAR CRY 5
  

Свинья / The Pig (Мани Хагиги) [2018, драма, комедия, криминал, детектив, WEB-DL 1080p] MVO [iTunes] pb.wtf

Свинья через торрент pb.wtf

Раздают: 1 [ 89 KB/s ]
Размер: 4.3 GB | Добавлен: 5 мес. 13 д. назад | Торрент скачан:45 раз
Скачать  

25-06-2018 00:26 Свинья Скачать торрент  

Свинья | The Pig
Год выпуска: 2018
Страна: Иран
Жанр: драма, комедия, криминал, детектив
Продолжительность: 01:48:05
Перевод: Профессиональный многоголосый | iTunes
Субтитры: Russian (Full)

Режиссер: Мани Хагиги

rating

В ролях: Хассан Маджуни, Лейла Хатами, Лейли Рашиди, Париназ Изадйар, Сиамак Ансари, Айназ Азархуш, Али Багери, Мина Джафарзаде, Али Мосаффа

Описание: В Тегеране один за другим погибают модные кинематографисты. Некогда опального, а сейчас просто забытого режиссёра Хасана страшит не смерть, а то, что серийный убийца игнорирует его: неужели он не достаточно талантлив?! Он готов на всё, лишь бы вернуть былую славу. Вскоре ситуация разворачивается на 180 градусов - и на нарцисса падают подозрения в череде трагедий.

Качество: WEB-DL 1080p
Формат: MKV

Видео: AVC, 5120 Kb/s, 1920x800
Аудио#1: Russian: AC3, 2 ch, 192 Kb/s
Аудио#2: Persian: AC3, 6 ch, 384 Kb/s
скриншот  скриншот  скриншот  скриншот  

Общее
Уникальный идентификатор : 182183188260636800134394065622094375360 (0x890F34ACEAD91BDD8CB7EABE5D78E9C0)
Полное имя : Svinya.2018.WEB-DL.1080p.ELEKTRI4KA.UNIONGANG.mkv
Формат : Matroska
Версия формата : Version 4
Размер файла : 4,30 Гбайт
Продолжительность : 1 ч. 48 м.
Общий поток : 5678 Кбит/сек
Название фильма : ELEKTRI4KA.UNIONGANG
Дата кодирования : UTC 2020-02-23 15:20:05
Программа кодирования : mkvmerge v8.3.0 ('Over the Horizon') 64bit
Библиотека кодирования : libebml v1.3.1 + libmatroska v1.4.2
Обложка : Yes
Attachments : cover.jpg

Видео
Идентификатор : 1
Формат : AVC
Формат/Информация : Advanced Video Codec
Профиль формата : High@L4
Настройки формата : CABAC / 4 Ref Frames
Параметр CABAC формата : Да
Параметр RefFrames формата : 4 кадра
Параметр GOP формата : M=7, N=48
Идентификатор кодека : V_MPEG4/ISO/AVC
Продолжительность : 1 ч. 48 м.
Битрейт : 5120 Кбит/сек
Ширина : 1920 пикселей
Высота : 800 пикселей
Соотношение сторон : 2,40:1
Режим частоты кадров : Постоянный
Частота кадров : 24,000 кадра/сек
Цветовое пространство : YUV
Субдискретизация насыщенности : 4:2:0
Битовая глубина : 8 бит
Тип развёртки : Прогрессивная
Бит/(Пиксели*Кадры) : 0.139
Размер потока : 3,86 Гбайт (90%)
Библиотека кодирования : x264 core 148
Настройки программы : cabac=1 / ref=3 / deblock=1:0:0 / analyse=0x3:0x113 / me=hex / subme=7 / psy=1 / psy_rd=1.00:0.00 / mixed_ref=1 / me_range=16 / chroma_me=1 / trellis=1 / 8x8dct=1 / cqm=0 / deadzone=21,11 / fast_pskip=1 / chroma_qp_offset=-2 / threads=25 / lookahead_threads=4 / sliced_threads=0 / nr=0 / decimate=1 / interlaced=0 / bluray_compat=0 / constrained_intra=0 / bframes=6 / b_pyramid=2 / b_adapt=1 / b_bias=0 / direct=1 / weightb=1 / open_gop=0 / weightp=2 / keyint=48 / keyint_min=25 / scenecut=0 / intra_refresh=0 / rc_lookahead=40 / rc=2pass / mbtree=1 / bitrate=5120 / ratetol=1.0 / qcomp=0.60 / qpmin=0 / qpmax=69 / qpstep=4 / cplxblur=20.0 / qblur=0.5 / vbv_maxrate=7680 / vbv_bufsize=20480 / nal_hrd=none / filler=0 / ip_ratio=1.40 / aq=1:1.00
Default : Да
Forced : Нет

Аудио #1
Идентификатор : 2
Формат : AC-3
Формат/Информация : Audio Coding 3
Коммерческое название : Dolby Digital
Идентификатор кодека : A_AC3
Продолжительность : 1 ч. 48 м.
Вид битрейта : Постоянный
Битрейт : 192 Кбит/сек
Каналы : 2 канала
Channel layout : L R
Частота : 48,0 КГц
Частота кадров : 31,250 кадров/сек (1536 SPF)
Битовая глубина : 16 бит
Метод сжатия : С потерями
Размер потока : 148 Мбайт (3%)
Заголовок : iTunes
Язык : Russian
ServiceKind/String : Complete Main
Default : Да
Forced : Нет

Аудио #2
Идентификатор : 3
Формат : AC-3
Формат/Информация : Audio Coding 3
Коммерческое название : Dolby Digital
Идентификатор кодека : A_AC3
Продолжительность : 1 ч. 48 м.
Вид битрейта : Постоянный
Битрейт : 384 Кбит/сек
Каналы : 6 каналов
Channel layout : L R C LFE Ls Rs
Частота : 48,0 КГц
Частота кадров : 31,250 кадров/сек (1536 SPF)
Битовая глубина : 16 бит
Метод сжатия : С потерями
Задержка видео : 19 мс.
Размер потока : 297 Мбайт (7%)
Язык : Persian
ServiceKind/String : Complete Main
Default : Нет
Forced : Нет

Текст
Идентификатор : 4
Формат : UTF-8
Идентификатор кодека : S_TEXT/UTF8
Идентификатор кодека/Информация : UTF-8 Plain Text
Продолжительность : 1 ч. 45 м.
Битрейт : 163 бит/сек
ElementCount : 1146
Размер потока : 127 Кбайт (0%)
Заголовок : Full
Язык : Russian
Default : Да
Forced : Нет

Меню
00:00:00.000 : en:Глава 01
00:16:19.625 : en:Глава 02
00:32:02.708 : en:Глава 03
00:46:22.333 : en:Глава 04
01:01:47.583 : en:Глава 05
01:16:20.083 : en:Глава 06
01:32:32.999 : en:Глава 07

pb.wtf



Скачать Свинья через торрент https://d.radikal.ru/d18/2002/29/03c699f5bbdb.png Скачать фильм Свинья через торрент бесплантно в хорошем качестве Описание: В Тегеране один за другим погибают модные кинематографисты. Некогда опального, а сейчас просто забытого режиссёра Хасана страшит ... 8.7 10 7
Торрент: Зарегистрирован [2020-02-23 16:39] · скачан: 45 раз
Статус: √ проверено
Размер: 4.3 GB
Как cкачать? Как скачать Свинья через торрент | qTorrent

% Раздел Тема Автор DL S | L
Фильмы 2018 [DVDrip, WEB-DLRip, HDrip] (DUB, MVO) [ 1.46 GB ] Свинья / The Pig [2018 WEB-DLRip] MVO bober100 Скачать
2 | 0
Фильмы до 2000 г. [ 2.11 GB ] Час свиньи / The Hour of the Pig [1993 история DVDRip-AVC ] от ExKinoRay dumbia Скачать
1 | 0
Этнические порно фильмы [ 698 MB ] Поездка На Летающей Розовой Свинье / Riding The Flying Pink Pig [2012 Interracial Parodies. DVDRip] Pir@tya2010 Скачать
1 | 0

28-11-2019 20:33  

Отключить всю рекламу на сайте

24-02-2020 11:29 Свинья Скачать торрент  

1 час 48 минут из жизни в некуда...pb.wtf



    Дорогой пользователь! Огромная просьба, поблагодарите релизера, оцените раздачу и оставьте свои комментарий, если Вы скачали Свинья через торрент бесплатно! Внесите свою лепту в развитие PiratBit!
    Комментировать посты могут только пользователи прошедшие не сложную регистрацию
    Показать сообщения:    

    Свинья через торрент
    Скачать бесплатно Свинья
    Свинья скачать торрент
    Свинья смотреть онлайн
    Cкачать фильм Свинья бесплатно
    Свинья скачать торрент в хорошем качестве
    Свинья смотреть онлайн бесплатно в хорошем качестве


    Вы не можете начинать темы
    Вы не можете отвечать на сообщения
    Вы не можете редактировать свои сообщения
    Вы не можете удалять свои сообщения
    Вы не можете голосовать в опросах
    Вы не можете прикреплять файлы к сообщениям
    Вы можете скачивать файлы