Ссылка на приватное зеркало всего за 1$. Внимание количество ограничено!!!

OK

1+1

iTunes

мы

OK

1

WEB-DLRip

Джокер

Пифагор

Ведьмак / The Witcher сериал

Лицензия

ПШазам

ОК

Оно 2

iTunes

30
pack

Вам бонус

ВАЖНО

!!Акция!!

Alien_RageХит недели

RePack

Resident Evil 21

ИГРА 18+

pack

RePack

jed

!!Акция!!

Alien_Rage

RePack

fifa19

RePack

Assassins Creed: Odyssey

RePack

NEED FOR SPEED™ PAYBACK

4 сезон

9 сезон

Бесстыжие 9 сезон

Все сериалы

все сериалы на PB.wtf

RePack

FAR CRY 5
  

Свинья / The Pig (Мани Хагиги) [2018, драма, комедия, криминал, детектив, WEB-DL 720p] MVO [официальный звук] pb.wtf

Свинья через торрент pb.wtf

Размер: 4.05 GB | Добавлен: 1 год 6 мес. назад | Торрент скачан:46 раз
Скачать  

25-06-2018 00:26 Свинья Скачать торрент  

Свинья / The PigГод выпуска: 2018
Страна: Иран
Жанр: драма, комедия, криминал, детектив
Продолжительность: 01:48:54
Перевод: Профессиональный многоголосый | официальный звук
Субтитры: отсутствуют

Режиссер: Мани Хагиги

rating

В ролях:

Хассан Маджуни, Лейла Хатами, Лейли Рашиди, Париназ Изадйар, Сиамак Ансари, Айназ Азархуш, Али Багери, Мина Джафарзаде, Али Мосаффа

Описание:

В Тегеране один за другим погибают модные кинематографисты. Некогда опального, а сейчас просто забытого режиссёра Хасана страшит не смерть, а то, что серийный убийца игнорирует его: неужели он не достаточно талантлив?! Он готов на всё, лишь бы вернуть былую славу. Вскоре ситуация разворачивается на 180 градусов - и на нарцисса падают подозрения в череде трагедий.

Качество: WEB-DL 720p
Формат: MKV

Видео: h.264, 4 943 Кбит/с, 1280x528
Аудио#1: Русский, (AC3, 2 ch, 384 Кбит/с)
скриншот  скриншот  скриншот  

Общее
Уникальный идентификатор : 193455021844596220055251159737675536590 (0x918A14FA6E18737CAC34032C9E03D8CE)
Полное имя : D:\The.Pig.2O18.Pof.WEB-DL.72Op.mkv
Формат : Matroska
Версия формата : Version 2
Размер файла : 4,05 Гбайт
Продолжительность : 1 ч. 48 м.
Режим общего битрейта : Переменный
Общий поток : 5329 Кбит/сек
Дата кодирования : UTC 2018-06-22 07:42:08
Программа кодирования : mkvmerge v8.3.0 ('Over the Horizon') 64bit
Библиотека кодирования : libebml v1.3.1 + libmatroska v1.4.2

Видео
Идентификатор : 1
Формат : AVC
Формат/Информация : Advanced Video Codec
Профиль формата : High@L4.1
Параметр CABAC формата : Да
Параметр RefFrames формата : 4 кадра
Идентификатор кодека : V_MPEG4/ISO/AVC
Продолжительность : 1 ч. 48 м.
Вид битрейта : Переменный
Битрейт : 4943 Кбит/сек
Максимальный битрейт : 5500 Кбит/сек
Ширина : 1280 пикселей
Высота : 528 пикселей
Соотношение сторон : 2,40:1
Режим частоты кадров : Постоянный
Частота кадров : 23,976 (24000/1001) кадра/сек
Стандарт вещания : Component
Цветовое пространство : YUV
Субдискретизация насыщенности : 4:2:0
Битовая глубина : 8 бит
Тип развёртки : Прогрессивная
Бит/(Пиксели*Кадры) : 0.299
Размер потока : 3,68 Гбайт (91%)
Default : Да
Forced : Нет
Цветовой диапазон : Limited
Основные цвета : BT.709
Характеристики трансфера : BT.709
Коэффициенты матрицы : BT.709

Аудио
Идентификатор : 2
Формат : AC-3
Формат/Информация : Audio Coding 3
Расширение режима : CM (complete main)
Параметр Endianness формата : Big
Идентификатор кодека : A_AC3
Продолжительность : 1 ч. 48 м.
Вид битрейта : Постоянный
Битрейт : 384 Кбит/сек
Каналы : 2 канала
Расположение каналов : Front: L R
Частота : 48,0 КГц
Частота кадров : 31,250 кадров/сек (1536 spf)
Метод сжатия : С потерями
Размер потока : 299 Мбайт (7%)
Default : Да
Forced : Нет

pb.wtf



Скачать Свинья через торрент http://img11.lostpic.net/2018/06/25/f91ede3052a13438480519431dd0e664.jpg Скачать фильм Свинья через торрент бесплантно в хорошем качестве Описание: В Тегеране один за другим погибают модные кинематографисты. Некогда опального, а сейчас просто забытого режиссёра Хасана страшит ... 10 10 4
Торрент: Зарегистрирован [2018-06-25 00:26] · скачан: 46 раз
Статус: T временная
Размер: 4.05 GB
Как cкачать? Как скачать Свинья через торрент | qTorrent

% Раздел Тема Автор DL S | L
T Фильмы (мультфильмы) cо спонсором показа (Новинки AVI/MKV) [ 1.37 GB ] Свинья / The Pig [2018 WEB-DLRip] MVO [официальный звук] bober100 Скачать
1 | 0
Фильмы до 2000 г. [ 2.11 GB ] Час свиньи / The Hour of the Pig [1993 история DVDRip-AVC ] от ExKinoRay dumbia Скачать
2 | 0
Этнические порно фильмы [ 698 MB ] Поездка На Летающей Розовой Свинье / Riding The Flying Pink Pig [2012 Interracial Parodies. DVDRip] Pir@tya2010 Скачать
1 | 0

28-11-2019 20:33  

Отключить всю рекламу на сайте

    Дорогой пользователь! Огромная просьба, поблагодарите релизера, оцените раздачу и оставьте свои комментарий, если Вы скачали Свинья через торрент бесплатно! Внесите свою лепту в развитие PiratBit!
    Комментировать посты могут только пользователи прошедшие не сложную регистрацию
    Показать сообщения:    

    Свинья через торрент
    Скачать бесплатно Свинья
    Свинья скачать торрент
    Свинья смотреть онлайн
    Cкачать фильм Свинья бесплатно
    Свинья скачать торрент в хорошем качестве
    Свинья смотреть онлайн бесплатно в хорошем качестве


    Вы не можете начинать темы
    Вы не можете отвечать на сообщения
    Вы не можете редактировать свои сообщения
    Вы не можете удалять свои сообщения
    Вы не можете голосовать в опросах
    Вы не можете прикреплять файлы к сообщениям
    Вы можете скачивать файлы