Ссылка на приватное зеркало нашего сайта всего за 1$. Внимание количество ограничено!!!

2 сезон

iTunes

1 сезон

1

iTunes

iTunes

iTunes

1 сезон

RePack

30

ИГРА 18+

pack

ВАЖНО

!!Акция!!

Alien_RageХит недели

RePack

MK11
pack

Забери бонус

RePack

jed

!!Акция!!

Alien_Rage

RePack

fifa19

RePack

Assassins Creed: Odyssey

RePack

NEED FOR SPEED™ PAYBACK

4 сезон

9 сезон

Бесстыжие 9 сезон

Все сериалы

все сериалы на PB.wtf

RePack

FAR CRY 5
  

Апостол / Серии: 1-12 из 12 (Юрий Мороз, Николай Лебедев, Геннадий Сидоров) [2008, боевик, военный, WEBRip 720p] pb.wtf

Апостол через торрент pb.wtf

Размер: 18.86 GB | Добавлен: 2 года 3 мес. назад | Торрент скачан:122 раза
Скачать  

25-06-2018 04:06 Апостол Скачать торрент  

Апостол
Год выпуска: 2008
Страна: Россия
Жанр: боевик, военный
Продолжительность: ~00:50:00
Субтитры: отсутствуют

Режиссер: Юрий Мороз, Николай Лебедев, Геннадий Сидоров

rating

В ролях:

Евгений Миронов, Николай Фоменко, Дарья Мороз, Андрей Смирнов, Андрей Гусев, Юрий Назаров, Александр Новин, Алексей Комашко, Сергей Быстрицкий, Михаил Федоровский и др.

Описание:

В начале войны немцы забрасывают в СССР своего диверсанта. Высадка проходит неудачно — шпиона захватывает НКВД. При попытке побега диверсант, оказавшийся русским вором в законе, случайно оставшимся на оккупированной территории, погибает. Чтобы найти остальных шпионов, участвующих в операции, чекистам приходится обратиться к брату-близнецу преступника — сельскому учителю. Тот занимает место покойного в немецкой агентурной сети и вступает в смертельно опасную игру…

Качество: WEBRip 720p
Формат: MKV

Видео: 1232x720, 25 fps, 4000 kbps
Аудио: AC3, 48 Hz, 6 ch, 448 kbps
скриншот   скриншот   скриншот   скриншот   скриншот  

Общее
Уникальный идентификатор : 250631067627787782903139799488733243362 (0xBC8DC9AE2A74CD94991B044D5B35E7E2)
Полное имя : D:\Апостол_(2008)_x720p\001_Apostol_720.mkv
Формат : Matroska
Версия формата : Version 4 / Version 2
Размер файла : 1,58 Гбайт
Продолжительность : 51 м. 5 с.
Общий поток : 4442 Кбит/сек
Дата кодирования : UTC 2018-06-21 15:59:27
Программа кодирования : mkvmerge v6.9.1 ('Blue Panther') 32bit built on Apr 18 2014 18:15:44
Библиотека кодирования : libebml v1.3.0 + libmatroska v1.4.1
Attachments : poster.png

Видео
Идентификатор : 1
Формат : AVC
Формат/Информация : Advanced Video Codec
Профиль формата : High@L4
Параметр CABAC формата : Да
Параметр RefFrames формата : 9 кадров
Идентификатор кодека : V_MPEG4/ISO/AVC
Продолжительность : 51 м. 5 с.
Битрейт : 4000 Кбит/сек
Ширина : 1232 пикселя
Высота : 720 пикселей
Соотношение сторон : 1,711
Режим частоты кадров : Постоянный
Частота кадров : 25,000 кадров/сек
Цветовое пространство : YUV
Субдискретизация насыщенности : 4:2:0
Битовая глубина : 8 бит
Тип развёртки : Прогрессивная
Бит/(Пиксели*Кадры) : 0.180
Размер потока : 1,39 Гбайт (88%)
Библиотека кодирования : x264 core 155 r2901M 7d0ff22
Настройки программы : cabac=1 / ref=9 / deblock=1:-3:-3 / analyse=0x3:0x133 / me=umh / subme=10 / psy=1 / psy_rd=1.05:0.00 / mixed_ref=1 / me_range=32 / chroma_me=1 / trellis=2 / 8x8dct=1 / cqm=0 / deadzone=21,11 / fast_pskip=0 / chroma_qp_offset=-2 / threads=9 / lookahead_threads=1 / sliced_threads=0 / nr=0 / decimate=1 / interlaced=0 / bluray_compat=0 / constrained_intra=0 / bframes=8 / b_pyramid=2 / b_adapt=2 / b_bias=0 / direct=3 / weightb=1 / open_gop=0 / weightp=2 / keyint=250 / keyint_min=25 / scenecut=40 / intra_refresh=0 / rc_lookahead=60 / rc=2pass / mbtree=1 / bitrate=4000 / ratetol=1.0 / qcomp=0.70 / qpmin=3 / qpmax=69 / qpstep=4 / cplxblur=20.0 / qblur=0.5 / ip_ratio=1.30 / aq=2:0.80
Default : Да
Forced : Нет

Аудио
Идентификатор : 2
Формат : AC-3
Формат/Информация : Audio Coding 3
Расширение режима : CM (complete main)
Параметр Endianness формата : Big
Идентификатор кодека : A_AC3
Продолжительность : 51 м. 5 с.
Вид битрейта : Постоянный
Битрейт : 448 Кбит/сек
Каналы : 6 каналов
Расположение каналов : Front: L C R, Side: L R, LFE
Частота : 48,0 КГц
Частота кадров : 31,250 кадров/сек (1536 spf)
Метод сжатия : С потерями
Размер потока : 164 Мбайт (10%)
Язык : Russian
Default : Да
Forced : Нет

pb.wtf



Скачать Апостол через торрент http://i062.radikal.ru/1711/d5/4c451746cfe8.jpg Скачать фильм Апостол через торрент бесплантно в хорошем качестве Описание: В начале войны немцы забрасывают в СССР своего диверсанта. Высадка проходит неудачно — шпиона захватывает НКВД. При попытке ... 10 10 6
Info! Серебряная раздача, засчитывается только 50% скачанного.
Торрент: Зарегистрирован [2018-06-25 04:06] · скачан: 122 раз
Статус: √ проверено
Размер: 18.86 GB
Как cкачать? Как скачать Апостол через торрент | qTorrent

% Раздел Тема Автор DL S | L
Зарубежные сериалы [ 7.07 GB ] Тринадцатый апостол: Избранный / Il tredicesimo apostolo: Il prescelto / Сезон: 1 / Серии: 1-12 из 12 [2012 DVDRip ] qwerty1234 Скачать
2 | 0
Зарубежные сериалы [ 8.75 GB ] Тринадцатый апостол: Откровение / Il tredicesimo apostolo: Il prescelto / Сезон: 2 / Серии: 1-12 из 12 [2014 HDTVRip ] qwerty1234 Скачать
2 | 0
Наши сериалы [ 27.39 GB ] Апостол / Серии: 1-12 из 12 [2008 военный WEBRip 1080p] bober100 Скачать
1 | 0

28-11-2019 20:33  

Отключить всю рекламу на сайте

    Дорогой пользователь! Огромная просьба, поблагодарите релизера, оцените раздачу и оставьте свои комментарий, если Вы скачали Апостол через торрент бесплатно! Внесите свою лепту в развитие PiratBit!
    Комментировать посты могут только пользователи прошедшие не сложную регистрацию
    Показать сообщения:    

    Апостол через торрент
    Скачать бесплатно Апостол
    Апостол скачать торрент
    Апостол смотреть онлайн
    Cкачать фильм Апостол бесплатно
    Апостол скачать торрент в хорошем качестве
    Апостол смотреть онлайн бесплатно в хорошем качестве


    Вы не можете начинать темы
    Вы не можете отвечать на сообщения
    Вы не можете редактировать свои сообщения
    Вы не можете удалять свои сообщения
    Вы не можете голосовать в опросах
    Вы не можете прикреплять файлы к сообщениям
    Вы можете скачивать файлы