Ссылка на приватное зеркало нашего сайта всего за 1$. Внимание количество ограничено!!!

2 сезон

iTunes

1 сезон

1

2 сезон

2 сезон

iTunes

1 сезон

RePack

30

Ultimate

ВАЖНО

ИГРА 18+

pack

RePack

MK11
pack

Забери бонус

RePack

jed

!!Акция!!

Alien_Rage

RePack

fifa19

RePack

Assassins Creed: Odyssey

RePack

NEED FOR SPEED™ PAYBACK

4 сезон

9 сезон

Бесстыжие 9 сезон

Все сериалы

все сериалы на PB.wtf

RePack

FAR CRY 5
  

Последний киногерой / Last Action Hero (Джон МакТирнан) [1993, фэнтези, боевик, комедия, приключения, Blu-Ray 1080p] MVO pb.wtf

Последний киногерой через торрент pb.wtf

Размер: 33.89 GB | Добавлен: 2 года 4 мес. назад | Торрент скачан:5 раз
Скачать  

25-06-2018 04:36 Последний киногерой Скачать торрент  

Последний киногерой / Last Action Hero

Год выпуска: 1993
Страна: США
Жанр: фэнтези, боевик, комедия, приключения
Продолжительность: 02:10:54
Перевод: Профессиональный многоголосый
Субтитры: Русские, английские, чешские, венгерские, польские, арабские, болгарские, хорватские, греческие, хинди, исландские, румынские, словацкие, словенские, турецкие
Режиссер: Джон МакТирнан
В ролях:

Арнольд Шварценеггер (Jack Slater), Остин О’Брайен (Danny Madigan), Чарльз Дэнс (Benedict), Ф. Мюррэй Абрахам (John Practice), Бриджит Уилсон (Whitney / Meredith), Том Нунен (Ripper / Tommy Noonan), Роберт Проски (Nick), Энтони Куинн (Tony Vivaldi), Мерседес Руэль (Irene Madigan), Фрэнк МакРей (Lieutenant Dekker), Иэн МакКеллен (Death), Арт Карни (Frank)
Описание:
Юному киноману Дэнни Мэдигану достается волшебный билет, который переносит его на другую сторону экрана. Мальчик оказывается рядом со своим любимым персонажем, знаменитым полицейским Джеком Слэйтером, и становится полноправным участником всех событий напряженного боевика.
Рейтинг:

MPAA: PG-13 - Детям до 13 лет просмотр не желателен
Качество: Blu-Ray 1080p
Контейнер: BDMV
Видео: MPEG-4 AVC, 27885 Kбит/с, 1920x1080, 23.976 кадр/с
Аудио 1: DTS-HD Master Audio Английский 3348 kbps 5.1 / 48 kHz / 3348 kbps / 24-bit
Аудио 2: Dolby Digital Audio Чешский 640 kbps 5.1 / 48 kHz / 640 kbps
Аудио 3: Dolby Digital Audio Венгерский 640 kbps 5.1 / 48 kHz / 640 kbps
Аудио 4: Dolby Digital Audio Польский 640 kbps 5.1 / 48 kHz / 640 kbps
Аудио 5: Dolby Digital Audio Русский 640 kbps 5.1 / 48 kHz / 640 kbps
Exclusive HD Content
MovieIQ
BD-Live
Сатурн, 1994 год
Номинации (7):
Лучший фэнтези-фильм
Лучший режиссер (Джон МакТирнан)
Лучший актер (Арнольд Шварценеггер)
Лучший молодой актер/актриса (Остин О’Брайен)
Лучший сценарий
Лучшие костюмы
Лучшие спецэффекты
• В начальных титрах фильма «Джек Слейтер IV», помимо Арнольда Шварценеггера, значатся режиссёр Франко Коломбо и актёр Мюррей Джозефсон. К слову, Коломбо является давним знакомым Шварценеггера, он участвовал практически во всех его фильмах, исполняя крохотные роли. В 1994 году Шварценеггер отплатил другу услугой - он участвовал в рекламной кампании фильма Коломбо «Остров Беретты» и даже сыграл там роль.
• Умирая от электрических разрядов, в конце фильма Потрошитель кричит хорошо знакомую фразу: I'll be back!
• В фильме намеренно содержатся ошибки в последовательности действия.
• Учительница в школе, которая рассказывает о Шекспире, Гамлете и Лоуренсе Оливье, - Джоан Плаурайт, британская актриса и третья жена Оливера.
• В магазине «Blockbuster» стоит плакат для фильма «Терминатор 2: Судный день» (1991), на котором вместо Арнольда Шварценеггера изображен Сильвестр Сталлоне.
• В магазине «Blockbuster» на мониторах идут сцены из фильма «Громовое сердце» (1992).
• В магазине «Blockbuster» можно заметить видеокассеты с фильмами «Крепкий орешек» (1988), «Охота за Красным октябрем» (1990) и «Знахарь» (1992), режиссером которых был Джон МакТирнан.
• После того как Бенедикт убивает механика и хочет сознаться в преступлении, на заднем плане можно заметить человека, несущего недавно украденные ботинки.
• Дэнни говорит Джеку, что это – первый фильм Мередит/Уитни. «Последний киногерой» стал кинодебютом Бриджит Уилсон, сыгравшей Мередит/Уитни.
• «Последний киногерой» стал первым фильмом, выпущенным в звуковом формате SDDS (Sony Dynamic Digital Sound). Он также стал первым фильмом, выпущенным в формате 7.1 channel SDDS mix.
• Последний фильм Арта Карни.
• Иэн МакКеллен сыграл Смерть, персонажа из фильма Ингмара Бергмана «Седьмая печать» (1956). В фильме Бергмана Бенгт Экерот исполнил данную роль.
• Когда Дэнни и Слэйтер заходят в полицейский участок, из дверей выходят Шэрон Стоун и Роберт Патрик в роли Кэтрин Трэммел (из «Основного инстинкта» (1992)) и Т-1000 (из «Терминатора 2: Судный день» (1991)) соответственно.
• Стивену Спилбергу предлагали поставить фильм, он отказался, предпочтя сделать «Список Шиндлера» (1993).
• Роберту Земекису предлагали поставить фильм.
• Гонорар Арнольда Шварценеггера составил $15 миллионов.
• Изначально роль Бенедикта предназначалась для Уильяма Этертона.
• Премьеру четвертой части «Джека Слэйтера» снимали на Тайм Сквер. Съёмки шли 7 дней с 15:00 до 3:00. Было перекрыто 7 кварталов.
• В магазине « Blockbuster», а также в газете, которую читает Бенедикт, можно заметить рекламу «Дракулы» (1992) и «Одинокой белой женщины» (1992).
• Взрыв дома бывшей жены Джека Слэйтера был позаимствован из «Последнего бойскаута» (1991), сценарий которого также написал Шэйн Блэк.
• По словам Чарльза Дэнса, роль Бенедикта писалась под Алана Рикмана.
• Чарльз Дэнс заменил Тимоти Далтона в роли Бенедикта.
• Дэнни говорит, что Джон Практис (Ф. Мюррэй Абрахам) убил Моцарта, ссылка на «Амадей» (1984), где Абрахам сыграл Антонио Сальери.
• После того как Бенедикт и Слэйтер сыграли в «Кто первый свернет», Дэнни говорит Джеку, чтобы он проверил, мертв ли Бенедикт, ссылаясь на «Крепкого орешка» (1988), в котором один из злодеев, которого считали мертвым, возвращается в концовке фильма. Джон МакТирнан был режиссером «Крепкого орешка» (1988).
• «Последний киногерой» стал первым фильмом, рекламировавшимся в космосе. За $500,000 название фильма было нанесено на беспилотную ракету NASA.
• Пистолеты в фильме: - Бенедикта - Dan Wesson .357 revolver. - Слэйтера - Desert Eagle .50 Action Express. - Дэнни - SIG-Sauer P230. - Ваволди - Walther PPK. - Гамлета - MAC-11 и MP5K. - Уитни – Colt Python .357 Magnum.
• По словам Чарльза Дэнса, после того как он узнал, что он сыграет роль, от которой отказался Алан Рикман из-за гонорара, Чарльз носил на съёмках футболку с надписью «Я дешевле, чем Алан Рикман!».
• В фильме сыграли два актера, ранее исполнившие роль Антонио Сальери: Ф. Мюррэй Абрахам в «Амадей» (1984) и Иэн МакКеллен, сыгравший Сальери в театральной постановке Питера Шаффера.
• Джек Слэйтер, пытаясь выдать себя за Арнольда Шварценеггера в реальном мире, неправильно называет свое имя – Арнольд Брауншвайгер. Первая часть фамилии Арнольда – Шварц, что на немецком означает черный. Первая часть фамилии, которую называет Слэйтер, - Браун, что на немецком означает коричневый.
• Продюсер Марк Кантон приобрел сценарий за $350,000.
• Песня «Big Gun» в исполнении AC/DC была специально написана для фильма после личной просьбы Арнольда Шварценеггера.
• После взрыва дома Фрэнка один из полицейских говорит: «Два дня до пенсии». Данная фраза – пародия на персонажа Дэнни Гловера в «Смертельном оружии» (1987).
• Последний фильм Майкла В. Гаццо.
• Предполагалось, что Тони Кертис исполнит роль-камео.
• Студия закрепила дату 18 июня 1993 для выхода фильма в прокат. 1 мая 1993 были устроены тест-просмотры, результаты которых, мягко говоря, были далеки от идеальных. Студия не желала переносить премьеру на август. Как раз одной из главных причин провала фильма в прокате – недостаточное время для пересъёмок и пост-продакшна после тест-просмотров. Чтобы успеть к премьере работа над фильмом продолжалась до последней недели выхода в прокат.
• Адам Лефф и Зак Пенн написали оригинальный сценарий фильма, который назывался «Extremely Violent». Сценарий очень сильно отличался от готового фильма. Когда Арнольд Шварценеггер согласился сыграть в фильме, он потребовал изменить название на «Last Action Hero», а также заметно переписать сценарий. Сначала Шейн Блэк и Дэвид Арнотт переписывали сценарий, во многом изменив повествование, а затем Уильям Голдман занимался полировкой сценария, за что получил гонорар в $1 миллион.
Disc Title: Last Action Hero
Disc Size: 36 383 958 796 bytes
Protection: AACS
BD-Java: Yes
BDInfo: 0.5.8

Notes:

BDINFO HOME:
Cinema Squid
http://www.cinemasquid.com/blu-ray/tools/bdinfo

INCLUDES FORUMS REPORT FOR:
AVS Forum Blu-ray Audio and Video Specifications Thread
http://www.avsforum.com/avs-vb/showthread.php?t=1155731

********************
PLAYLIST: 00001.MPLS
********************

<--- BEGIN FORUMS PASTE --->

Total Video
Title Codec Length Movie Size Disc Size Bitrate Bitrate Main Audio Track Secondary Audio Track
----- ------ ------- -------------- -------------- ------- ------- ------------------ ---------------------
00001.MPLS AVC 2:10:54 35 600 719 872 36 383 958 796 36,26 27,88 DTS-HD Master 5.1 3348Kbps (48kHz/24-bit)

DISC INFO:

Disc Title: Last Action Hero
Disc Size: 36 383 958 796 bytes
Protection: AACS
BD-Java: Yes
BDInfo: 0.5.8

PLAYLIST REPORT:

Name: 00001.MPLS
Length: 2:10:54.847 (h:m:s.ms)
Size: 35 600 719 872 bytes
Total Bitrate: 36,26 Mbps

VIDEO:

Codec Bitrate Description
----- ------- -----------
MPEG-4 AVC Video 27885 kbps 1080p / 23,976 fps / 16:9 / High Profile 4.1

AUDIO:

Codec Language Bitrate Description
----- -------- ------- -----------
DTS-HD Master Audio English 3348 kbps 5.1 / 48 kHz / 3348 kbps / 24-bit (DTS Core: 5.1 / 48 kHz / 1509 kbps / 24-bit)
Dolby Digital Audio Czech 640 kbps 5.1 / 48 kHz / 640 kbps
Dolby Digital Audio Hungarian 640 kbps 5.1 / 48 kHz / 640 kbps
Dolby Digital Audio Polish 640 kbps 5.1 / 48 kHz / 640 kbps
Dolby Digital Audio Russian 640 kbps 5.1 / 48 kHz / 640 kbps

SUBTITLES:

Codec Language Bitrate Description
----- -------- ------- -----------
Presentation Graphics English 34,669 kbps
Presentation Graphics Czech 26,242 kbps
Presentation Graphics Hungarian 24,384 kbps
Presentation Graphics Polish 19,156 kbps
Presentation Graphics Arabic 19,436 kbps
Presentation Graphics Bulgarian 32,322 kbps
Presentation Graphics Croatian 31,115 kbps
Presentation Graphics Greek 27,431 kbps
Presentation Graphics Hindi 27,489 kbps
Presentation Graphics Icelandic 27,114 kbps
Presentation Graphics Romanian 31,023 kbps
Presentation Graphics Serbian 31,677 kbps
Presentation Graphics Slovak 30,436 kbps
Presentation Graphics Slovenian 29,641 kbps
Presentation Graphics Turkish 25,111 kbps
Presentation Graphics Russian 0,064 kbps

FILES:

Name Time In Length Size Total Bitrate
---- ------- ------ ---- -------------
00011.M2TS 0:00:00.000 2:10:54.847 35 600 719 872 36 259

CHAPTERS:

Number Time In Length Avg Video Rate Max 1-Sec Rate Max 1-Sec Time Max 5-Sec Rate Max 5-Sec Time Max 10Sec Rate Max 10Sec Time Avg Frame Size Max Frame Size Max Frame Time
------ ------- ------ -------------- -------------- -------------- -------------- -------------- -------------- -------------- -------------- -------------- --------------
1 0:00:00.000 0:08:53.866 28 084 kbps 45 762 kbps 00:00:01.918 31 845 kbps 00:04:33.314 31 083 kbps 00:02:16.136 146 407 bytes 563 150 bytes 00:04:37.443
2 0:08:53.866 0:05:59.901 28 409 kbps 38 245 kbps 00:10:22.246 31 501 kbps 00:14:29.201 30 410 kbps 00:14:29.743 148 109 bytes 536 037 bytes 00:10:22.371
3 0:14:53.767 0:07:36.247 28 202 kbps 37 770 kbps 00:20:32.814 31 138 kbps 00:20:30.687 30 470 kbps 00:19:08.897 147 033 bytes 633 287 bytes 00:20:58.423
4 0:22:30.015 0:08:02.106 28 179 kbps 38 941 kbps 00:27:11.296 31 492 kbps 00:27:45.205 29 818 kbps 00:27:46.790 146 914 bytes 523 765 bytes 00:22:46.782
5 0:30:32.121 0:11:32.525 28 447 kbps 37 670 kbps 00:38:29.098 30 742 kbps 00:38:54.498 30 041 kbps 00:38:39.984 148 308 bytes 656 965 bytes 00:34:22.101
6 0:42:04.647 0:06:10.328 27 981 kbps 36 544 kbps 00:44:29.458 29 966 kbps 00:44:45.015 29 582 kbps 00:47:49.324 145 882 bytes 667 421 bytes 00:44:45.849
7 0:48:14.975 0:04:43.658 28 882 kbps 38 485 kbps 00:52:55.672 30 701 kbps 00:48:39.333 29 957 kbps 00:50:09.589 150 578 bytes 538 355 bytes 00:48:39.374
8 0:52:58.633 0:03:38.968 28 950 kbps 42 965 kbps 00:55:28.700 32 370 kbps 00:54:18.046 30 852 kbps 00:54:04.950 150 934 bytes 467 248 bytes 00:55:58.688
9 0:56:37.602 0:10:27.293 28 221 kbps 42 036 kbps 01:01:27.475 32 246 kbps 00:56:38.269 30 503 kbps 00:56:46.027 147 130 bytes 530 006 bytes 01:02:32.665
10 1:07:04.895 0:06:31.641 28 164 kbps 36 712 kbps 01:12:44.318 30 824 kbps 01:07:48.731 29 742 kbps 01:07:50.733 146 835 bytes 591 826 bytes 01:07:49.982
11 1:13:36.537 0:06:44.403 28 015 kbps 36 122 kbps 01:14:56.825 30 398 kbps 01:19:00.235 29 958 kbps 01:18:58.900 146 056 bytes 637 905 bytes 01:18:55.230
12 1:20:20.941 0:03:53.650 28 531 kbps 37 850 kbps 01:20:56.142 30 580 kbps 01:20:52.097 29 712 kbps 01:20:47.092 148 747 bytes 442 310 bytes 01:21:07.988
13 1:24:14.591 0:16:33.075 28 252 kbps 38 426 kbps 01:25:11.397 31 155 kbps 01:40:06.417 30 361 kbps 01:39:54.697 147 295 bytes 495 626 bytes 01:33:58.090
14 1:40:47.666 0:06:27.428 29 044 kbps 38 458 kbps 01:46:57.452 31 593 kbps 01:41:16.070 30 593 kbps 01:43:59.942 151 420 bytes 473 714 bytes 01:40:55.716
15 1:47:15.095 0:08:48.736 28 518 kbps 39 201 kbps 01:52:15.353 31 183 kbps 01:49:50.458 30 204 kbps 01:49:45.412 148 680 bytes 504 258 bytes 01:56:03.831
16 1:56:03.831 0:14:51.015 24 298 kbps 38 328 kbps 02:03:23.562 30 873 kbps 02:09:13.036 29 830 kbps 02:09:13.036 126 692 bytes 532 437 bytes 02:08:54.435

STREAM DIAGNOSTICS:

File PID Type Codec Language Seconds Bitrate Bytes Packets
---- --- ---- ----- -------- -------------- -------------- ------------- -----
00011.M2TS 4113 (0x1011) 0x1B AVC 7854,764 27 885 27 378 798 920 148 908 615
00011.M2TS 4352 (0x1100) 0x86 DTS-HD MA eng (English) 7854,764 3 348 3 287 036 552 19 089 132
00011.M2TS 4353 (0x1101) 0x81 AC3 ces (Czech) 7854,764 640 628 387 840 3 681 960
00011.M2TS 4354 (0x1102) 0x81 AC3 hun (Hungarian) 7854,764 640 628 387 840 3 681 960
00011.M2TS 4355 (0x1103) 0x81 AC3 pol (Polish) 7854,764 640 628 387 840 3 681 960
00011.M2TS 4356 (0x1104) 0x81 AC3 rus (Russian) 7854,764 640 628 387 840 3 681 960
00011.M2TS 4608 (0x1200) 0x90 PGS eng (English) 7854,764 35 34 039 834 194 024
00011.M2TS 4609 (0x1201) 0x90 PGS ces (Czech) 7854,764 26 25 765 381 146 600
00011.M2TS 4610 (0x1202) 0x90 PGS hun (Hungarian) 7854,764 24 23 941 331 136 687
00011.M2TS 4611 (0x1203) 0x90 PGS pol (Polish) 7854,764 19 18 808 487 109 020
00011.M2TS 4612 (0x1204) 0x90 PGS ara (Arabic) 7854,764 19 19 082 941 112 761
00011.M2TS 4613 (0x1205) 0x90 PGS bul (Bulgarian) 7854,764 32 31 735 151 181 563
00011.M2TS 4614 (0x1206) 0x90 PGS hrv (Croatian) 7854,764 31 30 550 088 175 065
00011.M2TS 4615 (0x1207) 0x90 PGS ell (Greek) 7854,764 27 26 933 521 152 980
00011.M2TS 4616 (0x1208) 0x90 PGS hin (Hindi) 7854,764 27 26 989 852 155 721
00011.M2TS 4617 (0x1209) 0x90 PGS isl (Icelandic) 7854,764 27 26 621 923 151 274
00011.M2TS 4618 (0x120A) 0x90 PGS ron (Romanian) 7854,764 31 30 459 927 174 643
00011.M2TS 4619 (0x120B) 0x90 PGS srp (Serbian) 7854,764 32 31 101 971 178 127
00011.M2TS 4620 (0x120C) 0x90 PGS slk (Slovak) 7854,764 30 29 883 342 171 466
00011.M2TS 4621 (0x120D) 0x90 PGS slv (Slovenian) 7854,764 30 29 103 417 167 219
00011.M2TS 4622 (0x120E) 0x90 PGS tur (Turkish) 7854,764 25 24 654 960 140 558
00011.M2TS 4623 (0x120F) 0x90 PGS rus (Russian) 7854,764 0 62 488 366

<---- END FORUMS PASTE ---->

QUICK SUMMARY:

Disc Title: Last Action Hero
Disc Size: 36 383 958 796 bytes
Protection: AACS
BD-Java: Yes
Playlist: 00001.MPLS
Size: 35 600 719 872 bytes
Length: 2:10:54.847
Total Bitrate: 36,26 Mbps
Video: MPEG-4 AVC Video / 27885 kbps / 1080p / 23,976 fps / 16:9 / High Profile 4.1
Audio: English / DTS-HD Master Audio / 5.1 / 48 kHz / 3348 kbps / 24-bit (DTS Core: 5.1 / 48 kHz / 1509 kbps / 24-bit)
Audio: Czech / Dolby Digital Audio / 5.1 / 48 kHz / 640 kbps
Audio: Hungarian / Dolby Digital Audio / 5.1 / 48 kHz / 640 kbps
Audio: Polish / Dolby Digital Audio / 5.1 / 48 kHz / 640 kbps
Audio: Russian / Dolby Digital Audio / 5.1 / 48 kHz / 640 kbps
Subtitle: English / 34,669 kbps
Subtitle: Czech / 26,242 kbps
Subtitle: Hungarian / 24,384 kbps
Subtitle: Polish / 19,156 kbps
Subtitle: Arabic / 19,436 kbps
Subtitle: Bulgarian / 32,322 kbps
Subtitle: Croatian / 31,115 kbps
Subtitle: Greek / 27,431 kbps
Subtitle: Hindi / 27,489 kbps
Subtitle: Icelandic / 27,114 kbps
Subtitle: Romanian / 31,023 kbps
Subtitle: Serbian / 31,677 kbps
Subtitle: Slovak / 30,436 kbps
Subtitle: Slovenian / 29,641 kbps
Subtitle: Turkish / 25,111 kbps
Subtitle: Russian / 0,064 kbps

********************
PLAYLIST: 00252.MPLS
********************

<--- BEGIN FORUMS PASTE --->

Total Video
Title Codec Length Movie Size Disc Size Bitrate Bitrate Main Audio Track Secondary Audio Track
----- ------ ------- -------------- -------------- ------- ------- ------------------ ---------------------
00252.MPLS AVC 0:01:02 129 060 864 36 383 958 796 16,55 15,56 DD AC3 2.0 192Kbps

DISC INFO:

Disc Title: Last Action Hero
Disc Size: 36 383 958 796 bytes
Protection: AACS
BD-Java: Yes
BDInfo: 0.5.8

PLAYLIST REPORT:

Name: 00252.MPLS
Length: 0:01:02.395 (h:m:s.ms)
Size: 129 060 864 bytes
Total Bitrate: 16,55 Mbps

VIDEO:

Codec Bitrate Description
----- ------- -----------
MPEG-4 AVC Video 15558 kbps 1080p / 23,976 fps / 16:9 / High Profile 4.1

AUDIO:

Codec Language Bitrate Description
----- -------- ------- -----------
Dolby Digital Audio English 192 kbps 2.0 / 48 kHz / 192 kbps / DN -1dB

FILES:

Name Time In Length Size Total Bitrate
---- ------- ------ ---- -------------
00542.M2TS 0:00:00.000 0:01:02.395 129 060 864 16 547

CHAPTERS:

Number Time In Length Avg Video Rate Max 1-Sec Rate Max 1-Sec Time Max 5-Sec Rate Max 5-Sec Time Max 10Sec Rate Max 10Sec Time Avg Frame Size Max Frame Size Max Frame Time
------ ------- ------ -------------- -------------- -------------- -------------- -------------- -------------- -------------- -------------- -------------- --------------
1 0:00:00.000 0:01:02.395 15 558 kbps 33 778 kbps 00:00:47.881 25 939 kbps 00:00:47.130 21 745 kbps 00:00:42.083 81 165 bytes 671 919 bytes 00:00:21.604

STREAM DIAGNOSTICS:

File PID Type Codec Language Seconds Bitrate Bytes Packets
---- --- ---- ----- -------- -------------- -------------- ------------- -----
00542.M2TS 4113 (0x1011) 0x1B AVC 62,312 15 579 121 342 075 660 340
00542.M2TS 4352 (0x1100) 0x81 AC3 eng (English) 62,312 192 1 497 600 9 750

<---- END FORUMS PASTE ---->

QUICK SUMMARY:

Disc Title: Last Action Hero
Disc Size: 36 383 958 796 bytes
Protection: AACS
BD-Java: Yes
Playlist: 00252.MPLS
Size: 129 060 864 bytes
Length: 0:01:02.395
Total Bitrate: 16,55 Mbps
Video: MPEG-4 AVC Video / 15558 kbps / 1080p / 23,976 fps / 16:9 / High Profile 4.1
Audio: English / Dolby Digital Audio / 2.0 / 48 kHz / 192 kbps / DN -1dB

********************
PLAYLIST: 00102.MPLS
********************

<--- BEGIN FORUMS PASTE --->

Total Video
Title Codec Length Movie Size Disc Size Bitrate Bitrate Main Audio Track Secondary Audio Track
----- ------ ------- -------------- -------------- ------- ------- ------------------ ---------------------
00102.MPLS MPEG-2 0:01:00 118 216 704 36 383 958 796 15,75 15,01

DISC INFO:

Disc Title: Last Action Hero
Disc Size: 36 383 958 796 bytes
Protection: AACS
BD-Java: Yes
BDInfo: 0.5.8

PLAYLIST REPORT:

Name: 00102.MPLS
Length: 0:01:00.060 (h:m:s.ms)
Size: 118 216 704 bytes
Total Bitrate: 15,75 Mbps

VIDEO:

Codec Bitrate Description
----- ------- -----------
MPEG-2 Video 15013 kbps 1080p / 23,976 fps / 16:9

FILES:

Name Time In Length Size Total Bitrate
---- ------- ------ ---- -------------
00081.M2TS 0:00:00.000 0:01:00.060 118 216 704 15 746

CHAPTERS:

Number Time In Length Avg Video Rate Max 1-Sec Rate Max 1-Sec Time Max 5-Sec Rate Max 5-Sec Time Max 10Sec Rate Max 10Sec Time Avg Frame Size Max Frame Size Max Frame Time
------ ------- ------ -------------- -------------- -------------- -------------- -------------- -------------- -------------- -------------- -------------- --------------
1 0:00:00.000 0:00:15.015 15 272 kbps 19 624 kbps 00:00:13.930 15 925 kbps 00:00:09.926 15 462 kbps 00:00:04.921 79 401 bytes 663 627 bytes 00:00:14.931
2 0:00:15.015 0:00:15.015 14 775 kbps 15 185 kbps 00:00:16.433 15 033 kbps 00:00:16.433 15 017 kbps 00:00:16.433 77 031 bytes 674 417 bytes 00:00:15.432
3 0:00:30.030 0:00:15.015 15 005 kbps 15 922 kbps 00:00:43.960 15 184 kbps 00:00:39.956 15 092 kbps 00:00:34.951 78 232 bytes 253 660 bytes 00:00:44.961
4 0:00:45.045 0:00:15.015 15 001 kbps 15 033 kbps 00:00:45.045 15 007 kbps 00:00:45.045 15 003 kbps 00:00:45.045 78 424 bytes 253 660 bytes 00:00:45.462

STREAM DIAGNOSTICS:

File PID Type Codec Language Seconds Bitrate Bytes Packets
---- --- ---- ----- -------- -------------- -------------- ------------- -----
00081.M2TS 4113 (0x1011) 0x02 MPEG-2 59,935 15 045 112 712 665 613 678

<---- END FORUMS PASTE ---->

QUICK SUMMARY:

Disc Title: Last Action Hero
Disc Size: 36 383 958 796 bytes
Protection: AACS
BD-Java: Yes
Playlist: 00102.MPLS
Size: 118 216 704 bytes
Length: 0:01:00.060
Total Bitrate: 15,75 Mbps
Video: MPEG-2 Video / 15013 kbps / 1080p / 23,976 fps / 16:9
pb.wtf



Скачать Последний киногерой через торрент https://a.radikal.ru/a05/1806/06/bc6b6c7388d8.png Скачать фильм Последний киногерой через торрент бесплантно в хорошем качестве Описание: Юному киноману Дэнни Мэдигану достается волшебный билет, который переносит его на другую сторону экрана. Мальчик оказывается ... 9.8 10 5
Info! Золотая раздача, скачанное не засчитывается.
Торрент: Зарегистрирован [2018-06-25 04:36] · скачан: 5 раз
Статус: √ проверено
Размер: 33.89 GB
Как cкачать? Как скачать Последний киногерой через торрент | qTorrent

28-11-2019 20:33  

Отключить всю рекламу на сайте

    Дорогой пользователь! Огромная просьба, поблагодарите релизера, оцените раздачу и оставьте свои комментарий, если Вы скачали Последний киногерой через торрент бесплатно! Внесите свою лепту в развитие PiratBit!
    Комментировать посты могут только пользователи прошедшие не сложную регистрацию
    Показать сообщения:    

    Последний киногерой через торрент
    Скачать бесплатно Последний киногерой
    Последний киногерой скачать торрент
    Последний киногерой смотреть онлайн
    Cкачать фильм Последний киногерой бесплатно
    Последний киногерой скачать торрент в хорошем качестве
    Последний киногерой смотреть онлайн бесплатно в хорошем качестве


    Вы не можете начинать темы
    Вы не можете отвечать на сообщения
    Вы не можете редактировать свои сообщения
    Вы не можете удалять свои сообщения
    Вы не можете голосовать в опросах
    Вы не можете прикреплять файлы к сообщениям
    Вы можете скачивать файлы