новый адрес
Ссылка на приватное зеркало всего за 1$. Внимание количество ограничено!!!

iTunes

1+1

iTunes

мы

iTunes

1

iTunes

Чернобыль

iTunes

Ральф против интернета

Лицензия

ПШазам

Лицензия

Оно 2

Лицензия

30
pack

Вам бонус

ВАЖНО

!!Акция!!

Alien_RageХит недели

RePack

Resident Evil 21

ИГРА 18+

pack

RePack

jed

!!Акция!!

Alien_Rage

RePack

fifa19

RePack

Assassins Creed: Odyssey

RePack

NEED FOR SPEED™ PAYBACK

3 сезон

9 сезон

Бесстыжие 9 сезон

Все сериалы

все сериалы на PB.wtf

RePack

FAR CRY 5
Ребята, катастрофически не хватает 1900р. для оплаты серверов за Октябрь (всвязи с блокировками трафик упал в 3 раза), 1-2р., выручайте.
  

Прерванная песня (Николай Санишвили) [1960, СССР, Чехословакия, мелодрама, военный, DVDRip от AVP Studio] pb.wtf

Прерванная песня через торрент pb.wtf

Размер: 1.09 GB | Добавлен: 1 год 4 мес. назад | Торрент скачан:11 раз
Скачать  

25-06-2018 09:29 Прерванная песня Скачать торрент  

Прерванная песня
Страна: СССР
Производство: Грузия-фильм, "Koliba" (Cловакия),

Жанр: мелодрама, военный
Год выпуска: 1960
Продолжительность: 01:38:23

Перевод: Не требуется
Cубтитры: нет
Оригинальная аудиодорожка: русский

Режиссер: Николай Санишвили

В ролях:
Юлиус Пантик, Лия Элиава, Верико Анджапаридзе, Додо Чичинадзе, Отар Коберидзе, Александр Омиадзе, Зураб Лаперадзе, Кароль Махата, Римма Шорохова, Мария Марковичова, Вацлав Млынек, Сергей Голованов, Гелена Зварикова, Войцех Загурский, Людовик Озабал, Вильям Полони, Иозеф Черный, Рудольф Бахлет, Душан Блашкович, Вильям Заборский, Владо Мюллер, Юлиус Вашек...
Об актёрах подробней

Описание:
Учителя из словацкой деревушки Мишо Звару отправили на войну. Среди гитлеровских полчищ, воеваших в Советском Союзе, была и словацкая дивизия. Но словаки не хотят поевать, каждый день они перебегают на советскую сторону. Когда Мишо и его друзей послали разведку, они тоже перешли к русским. Чтобы повидать раненного друга, учитель убегает из лагеря для ваоеннопленных. В это время фашистские самолёты начинают бомбить санитарный поезд. Мишо бросается к зенитному пулемёту и обстреливает немецкий самолёт.

Источник: DVD5 R5
Качество видео: DVDRip
Формат видео: AVI

Видео: 704x528 (4:3), 25,000 кадров/сек, XviD ~ 1384 kbps avg, 0.149 bit/pixel
Аудио: 48 kHz, Dolby Digital AC3 2.0, 192 kbps

Раздача от:
Общее
Полное имя : Prervannaya.pesnya.1960.DVDRip_[New-team]_by_AVP_Studio.avi
Формат : AVI
Формат/Информация : Audio Video Interleave
Размер файла : 1,09 Гбайт
Продолжительность : 1 ч. 38 м.
Общий поток : 1586 Кбит/сек
Программа кодирования : VirtualDubMod 1.5.10.3 | www.virtualdub-fr.org || (build 2550/release)
Библиотека кодирования : VirtualDubMod build 2550/release

Видео
Идентификатор : 0
Формат : MPEG-4 Visual
Профиль формата : Advanced Simple@L5
Настройки формата : BVOP1 / Custom Matrix
Параметр BVOP формата : 1
Параметр QPel формата : Нет
Параметр GMC формата : Без точки перехода
Параметр матрицы формата : Выборочная
Идентификатор кодека : XVID
Идентификатор кодека/Подсказка : XviD
Продолжительность : 1 ч. 38 м.
Битрейт : 1384 Кбит/сек
Ширина : 704 пикселя
Высота : 528 пикселей
Соотношение сторон : 4:3
Частота кадров : 25,000 кадров/сек
Цветовое пространство : YUV
Субдискретизация насыщенности : 4:2:0
Битовая глубина : 8 бит
Тип развёртки : Прогрессивная
Метод сжатия : С потерями
Бит/(Пиксели*Кадры) : 0.149
Размер потока : 974 Мбайт (87%)
Библиотека кодирования : XviD 73

Аудио
Идентификатор : 1
Формат : AC-3
Формат/Информация : Audio Coding 3
Идентификатор кодека : 2000
Продолжительность : 1 ч. 38 м.
Вид битрейта : Постоянный
Битрейт : 192 Кбит/сек
Каналы : 2 канала
Расположение каналов : Front: L R
Частота : 48,0 КГц
Частота кадров : 31,250 кадров/сек (1536 SPF)
Битовая глубина : 16 бит
Метод сжатия : С потерями
Размер потока : 135 Мбайт (12%)
Выравнивание : Разделение по промежуткам
Продолжительность промежутка : 40 мс. (1,00 видеокадр)
Время предзагрузки промежутка : 500 мс
pb.wtf



Скачать Прерванная песня через торрент http://picplus.ru/img/1806/25/d1f3986c.png Скачать фильм Прерванная песня через торрент бесплантно в хорошем качестве Описание:Учителя из словацкой деревушки Мишо Звару отправили на войну. Среди гитлеровских полчищ, воеваших в Советском Союзе, была и ... 10 10 1
Info! Золотая раздача, скачанное не засчитывается.
Торрент: Зарегистрирован [2018-06-25 09:29] · скачан: 11 раз
Статус: √ проверено
Размер: 1.09 GB
Как cкачать? Как скачать Прерванная песня через торрент | qTorrent

% Раздел Тема Автор DL S | L
Кино СССР [ 1.09 GB ] Прерванная песня [1960 СССР Чехословакия военный DVDRip-AVC от AVP Studio] AVP Studio Скачать
1 | 0
    Дорогой пользователь! Огромная просьба, поблагодарите релизера, оцените раздачу и оставьте свои комментарий, если Вы скачали Прерванная песня через торрент бесплатно! Внесите свою лепту в развитие PiratBit!
    Комментировать посты могут только пользователи прошедшие не сложную регистрацию
    Показать сообщения:    

    Прерванная песня через торрент
    Скачать бесплатно Прерванная песня
    Прерванная песня скачать торрент
    Прерванная песня смотреть онлайн
    Cкачать фильм Прерванная песня бесплатно
    Прерванная песня скачать торрент в хорошем качестве
    Прерванная песня смотреть онлайн бесплатно в хорошем качестве


    Вы не можете начинать темы
    Вы не можете отвечать на сообщения
    Вы не можете редактировать свои сообщения
    Вы не можете удалять свои сообщения
    Вы не можете голосовать в опросах
    Вы не можете прикреплять файлы к сообщениям
    Вы можете скачивать файлы