Ссылка на приватное зеркало нашего сайта всего за 1$. Внимание количество ограничено!!!

2 сезон

iTunes

1 сезон

1

2 сезон

2 сезон

iTunes

1 сезон

RePack

30

Новинка

ВАЖНО

ИГРА 18+

pack

RePack

MK11
pack

Забери бонус

RePack

jed

!!Акция!!

Alien_Rage

RePack

fifa19

RePack

Assassins Creed: Odyssey

RePack

NEED FOR SPEED™ PAYBACK

4 сезон

9 сезон

Бесстыжие 9 сезон

Все сериалы

все сериалы на PB.wtf

RePack

FAR CRY 5
  

Другой мир: Войны крови / Underworld: Blood Wars (Анна Ферстер) [2016, ужасы, фэнтези, боевик, BDRemux 1080p] DUB + 3xAVO pb.wtf

Другой мир: Войны крови через торрент pb.wtf

Размер: 22.41 GB | Добавлен: 2 года 5 мес. назад | Торрент скачан:20 раз
Скачать  

25-06-2018 17:01 Другой мир: Войны крови Скачать торрент  

Другой мир: Войны крови / Underworld: Blood Wars«Защитить родословную»
Год выпуска: 2016
Страна: США
Жанр: ужасы, фэнтези, боевик, приключения
Продолжительность: 01:31:32
Перевод: Дублированный, авторский
Субтитры: Русские, английские, украинские
Режиссер: Анна Ферстер
В ролях:

Кейт Бекинсейл (Selene), Тео Джеймс (David), Тобайас Мензис (Marius), Лара Пулвер (Semira), Чарльз Дэнс (Thomas), Джеймс Фолкнер (Cassius), Петер Андерссон (Vidar), Клементайн Николсон (Lena), Брэдли Джеймс (Varga), Дэйзи Хэд (Alexia), Оливер Старк (Gregor), Зузана Стивинова (Vampire Council #1)
Описание:
Воительница-вампир Селена вступает в свой последний и решающий бой между оборотнями и кланом вампиров, который её предал.
Рейтинг:

MPAA: R - Лицам до 17 лет обязательно присутствие взрослого
Качество: BDRemux 1080p
Формат: MKV
Видео: MPEG-4 AVC, 24.9 Mбит/с, 1920х1080, 23.976 Кадр/с
Аудио 1: Русский AC3 5.1, 640 Кбит/с - Дубляж
Аудио 2: Русский DTS-HD MA 5.1, 2364 Кбит/с - АП (Гаврилов)
Аудио 3: Русский DTS-HD MA 5.1, 2366 Кбит/с - АП (Есарев)
Аудио 4: Русский DTS-HD MA 5.1, 2366 Кбит/с - АП (Живов)
Аудио 5: Английский DTS-HD MA 5.1, 2354 Кбит/с - Оригинал
Навигация по главам: есть
Общее
Уникальный идентификатор : 196314825848012592251089735114944990410 (0x93B0DC33A0D801B8A13058A4CF38CCCA)
Полное имя : D:\РЕМУКС!!!!!\Другой мир. Войны крови.BDRemux.mkv
Формат : Matroska
Версия формата : Version 4 / Version 2
Размер файла : 22,4 Гбайт
Продолжительность : 1 ч. 31 м.
Режим общего битрейта : Переменный
Общий поток : 35,0 Мбит/сек
Название фильма : Другой мир. Войны крови.BDRemux.thx:SPOMOPS
Дата кодирования : UTC 2018-03-31 09:22:11
Программа кодирования : mkvmerge v8.3.0 ('Over the Horizon') 64bit
Библиотека кодирования : libebml v1.3.1 + libmatroska v1.4.2

Видео
Идентификатор : 1
Формат : AVC
Формат/Информация : Advanced Video Codec
Профиль формата : High@L4.1
Настройки формата : CABAC / 2 Ref Frames
Параметр CABAC формата : Да
Параметр RefFrames формата : 2 кадра
Параметр GOP формата : M=1, N=10
Идентификатор кодека : V_MPEG4/ISO/AVC
Продолжительность : 1 ч. 31 м.
Вид битрейта : Переменный
Битрейт : 24,9 Мбит/сек
Ширина : 1920 пикселей
Высота : 1080 пикселей
Соотношение сторон : 16:9
Режим частоты кадров : Постоянный
Частота кадров : 23,976 (24000/1001) кадра/сек
Цветовое пространство : YUV
Субдискретизация насыщенности : 4:2:0
Битовая глубина : 8 бит
Тип развёртки : Прогрессивная
Бит/(Пиксели*Кадры) : 0.502
Размер потока : 16,0 Гбайт (71%)
Язык : English
Default : Да
Forced : Нет

Аудио #1
Идентификатор : 2
Формат : AC-3
Формат/Информация : Audio Coding 3
Идентификатор кодека : A_AC3
Продолжительность : 1 ч. 31 м.
Вид битрейта : Постоянный
Битрейт : 640 Кбит/сек
Каналы : 6 каналов
Расположение каналов : Front: L C R, Side: L R, LFE
Частота : 48,0 КГц
Частота кадров : 31,250 кадров/сек (1536 SPF)
Битовая глубина : 16 бит
Метод сжатия : С потерями
Размер потока : 419 Мбайт (2%)
Заголовок : Русский ас3 - Дубляж
Язык : Russian
ServiceKind/String : Complete Main
Default : Да
Forced : Нет

Аудио #2
Идентификатор : 3
Формат : DTS
Формат/Информация : Digital Theater Systems
Профиль формата : MA / Core
Идентификатор кодека : A_DTS
Продолжительность : 1 ч. 31 м.
Вид битрейта : Переменный / Постоянный
Битрейт : 2364 Кбит/сек / 1509 Кбит/сек
Каналы : 6 каналов
Расположение каналов : Front: L C R, Side: L R, LFE
Частота : 48,0 КГц
Частота кадров : 93,750 кадра/сек (512 SPF)
Битовая глубина : 16 бит
Метод сжатия : Без потерь / Lossy
Размер потока : 1,51 Гбайт (7%)
Заголовок : Русский DTS-HD MA - АП (Гаврилов)
Язык : Russian
Default : Нет
Forced : Нет

Аудио #3
Идентификатор : 4
Формат : DTS
Формат/Информация : Digital Theater Systems
Профиль формата : MA / Core
Идентификатор кодека : A_DTS
Продолжительность : 1 ч. 31 м.
Вид битрейта : Переменный / Постоянный
Битрейт : 2366 Кбит/сек / 1509 Кбит/сек
Каналы : 6 каналов
Расположение каналов : Front: L C R, Side: L R, LFE
Частота : 48,0 КГц
Частота кадров : 93,750 кадра/сек (512 SPF)
Битовая глубина : 16 бит
Метод сжатия : Без потерь / Lossy
Размер потока : 1,51 Гбайт (7%)
Заголовок : Русский DTS-HD MA - АП (Есарев)
Язык : Russian
Default : Нет
Forced : Нет

Аудио #4
Идентификатор : 5
Формат : DTS
Формат/Информация : Digital Theater Systems
Профиль формата : MA / Core
Идентификатор кодека : A_DTS
Продолжительность : 1 ч. 31 м.
Вид битрейта : Переменный / Постоянный
Битрейт : 2366 Кбит/сек / 1509 Кбит/сек
Каналы : 6 каналов
Расположение каналов : Front: L C R, Side: L R, LFE
Частота : 48,0 КГц
Частота кадров : 93,750 кадра/сек (512 SPF)
Битовая глубина : 16 бит
Метод сжатия : Без потерь / Lossy
Размер потока : 1,51 Гбайт (7%)
Заголовок : Русский DTS-HD MA - АП (Живов)
Язык : Russian
Default : Нет
Forced : Нет

Аудио #5
Идентификатор : 6
Формат : DTS
Формат/Информация : Digital Theater Systems
Профиль формата : MA / Core
Идентификатор кодека : A_DTS
Продолжительность : 1 ч. 31 м.
Вид битрейта : Переменный / Постоянный
Битрейт : 2354 Кбит/сек / 1509 Кбит/сек
Каналы : 6 каналов
Расположение каналов : Front: L C R, Side: L R, LFE
Частота : 48,0 КГц
Частота кадров : 93,750 кадра/сек (512 SPF)
Битовая глубина : 16 бит
Метод сжатия : Без потерь / Lossy
Размер потока : 1,50 Гбайт (7%)
Заголовок : Английский DTS-HD MA - Оригинал
Язык : English
Default : Нет
Forced : Нет

Текст #1
Идентификатор : 7
Формат : UTF-8
Идентификатор кодека : S_TEXT/UTF8
Идентификатор кодека/Информация : UTF-8 Plain Text
Продолжительность : 1 ч. 30 м.
Битрейт : 71 бит/сек
ElementCount : 837
Размер потока : 47,3 Кбайт (0%)
Заголовок : Русские
Язык : Russian
Default : Нет
Forced : Нет

Текст #2
Идентификатор : 8
Формат : UTF-8
Идентификатор кодека : S_TEXT/UTF8
Идентификатор кодека/Информация : UTF-8 Plain Text
Продолжительность : 1 ч. 30 м.
Битрейт : 63 бит/сек
ElementCount : 821
Размер потока : 41,9 Кбайт (0%)
Заголовок : Украинские
Язык : Ukrainian
Default : Нет
Forced : Нет

Текст #3
Идентификатор : 9
Формат : UTF-8
Идентификатор кодека : S_TEXT/UTF8
Идентификатор кодека/Информация : UTF-8 Plain Text
Продолжительность : 1 ч. 30 м.
Битрейт : 42 бит/сек
ElementCount : 820
Размер потока : 27,9 Кбайт (0%)
Заголовок : Английские
Язык : English
Default : Нет
Forced : Нет

Меню
00:00:00.000 : en:00:00:00.000
00:04:30.479 : en:00:04:30.479
00:09:25.315 : en:00:09:25.315
00:13:59.964 : en:00:13:59.964
00:18:56.010 : en:00:18:56.010
00:24:27.091 : en:00:24:27.091
00:31:15.957 : en:00:31:15.957
00:36:26.810 : en:00:36:26.810
00:42:17.034 : en:00:42:17.034
00:47:37.646 : en:00:47:37.646
00:52:22.181 : en:00:52:22.181
00:58:59.327 : en:00:58:59.327
01:04:31.659 : en:01:04:31.659
01:08:52.128 : en:01:08:52.128
01:13:47.131 : en:01:13:47.131
01:20:08.512 : en:01:20:08.512
pb.wtf



Скачать Другой мир: Войны крови через торрент https://d.radikal.ru/d35/1806/4f/1e08ab491859.jpg Скачать фильм Другой мир: Войны крови через торрент бесплантно в хорошем качестве Описание: Воительница-вампир Селена вступает в свой последний и решающий бой между оборотнями и кланом вампиров, который её предал.✦ ... 10 10 4
Info! Золотая раздача, скачанное не засчитывается.
Торрент: Зарегистрирован [2018-06-25 17:01] · скачан: 20 раз
Статус: √ проверено
Размер: 22.41 GB
Как cкачать? Как скачать Другой мир: Войны крови через торрент | qTorrent

28-11-2019 20:33  

Отключить всю рекламу на сайте

    Дорогой пользователь! Огромная просьба, поблагодарите релизера, оцените раздачу и оставьте свои комментарий, если Вы скачали Другой мир: Войны крови через торрент бесплатно! Внесите свою лепту в развитие PiratBit!
    Комментировать посты могут только пользователи прошедшие не сложную регистрацию
    Показать сообщения:    

    Другой мир: Войны крови через торрент
    Скачать бесплатно Другой мир: Войны крови
    Другой мир: Войны крови скачать торрент
    Другой мир: Войны крови смотреть онлайн
    Cкачать фильм Другой мир: Войны крови бесплатно
    Другой мир: Войны крови скачать торрент в хорошем качестве
    Другой мир: Войны крови смотреть онлайн бесплатно в хорошем качестве


    Вы не можете начинать темы
    Вы не можете отвечать на сообщения
    Вы не можете редактировать свои сообщения
    Вы не можете удалять свои сообщения
    Вы не можете голосовать в опросах
    Вы не можете прикреплять файлы к сообщениям
    Вы можете скачивать файлы