Ссылка на приватное зеркало нашего сайта всего за 1$. Внимание количество ограничено!!!

2 сезон

iTunes

1 сезон

1

2 сезон

2 сезон

iTunes

1 сезон

RePack

30

Ultimate

ВАЖНО

ИГРА 18+

pack

RePack

MK11
pack

Забери бонус

RePack

jed

!!Акция!!

Alien_Rage

RePack

fifa19

RePack

Assassins Creed: Odyssey

RePack

NEED FOR SPEED™ PAYBACK

4 сезон

9 сезон

Бесстыжие 9 сезон

Все сериалы

все сериалы на PB.wtf

RePack

FAR CRY 5
  

Операция «Шаровая молния» / Entebbe (Жозе Падилья) [2018, триллер, драма, криминал, BD Remux 1080p] MVO [HDRezka Studio] +DUB [iTunes] pb.wtf

Операция «Шаровая молния» через торрент pb.wtf

Размер: 29.58 GB | Добавлен: 2 года 5 мес. назад | Торрент скачан:49 раз
Скачать  

26-06-2018 10:54 Операция «Шаровая молния» Скачать торрент  

Операция «Шаровая молния» / Entebbe
«248 пассажиров. 7 дней. Один план спасения»
Год выпуска: 2018
Страна: Великобритания, США
Жанр: триллер, драма, криминал
Продолжительность: 01:47:00
Перевод:

#1: Дублированный | iTunes
#2: Профессиональный многоголосый | HDRezka Studio

Субтитры: Английские

Режиссер: Жозе Падилья

rating

В ролях:

Розамунд Пайк (Brigitte Kuhlmann), Эдди Марсан (Shimon Peres), Даниэль Брюль (Wilfried Böse), Нонсо Анози (Idi Amin), Бен Шнетцер (Zeev Hirsch), Камиль Лемешевский (Greek Pilot), Хуан Пабло Раба (Juan Pablo), Марк Иванир (General Motta Gur), Дени Меноше (Jacques Le Moine), Бронтис Ходоровски (Captain Bacos), Винсент Риотта (Dan Shomron), Анхель Бунани (Yonatan (Yoni), Netanyahu)
Описание:

В 1976 году самолет, следовавший из Тель-Авива в Париж, был захвачен террористами и совершил вынужденную посадку в аэропорту Энтеббе в Уганде с целью обмена заложников на осужденных преступников. Дипломатического решения вопроса за 7 дней найти не удалось. Тогда был разработан весьма изобретательный и крайне смелый план спасения...

Качество: BD Remux 1080p
Формат: MKV

Видео: MPEG-4 AVC, 1920x1080, 35.3 Mbit/s, 23.976 fps
Аудио#1: 48 kHz, AC3, 6.0, 384 Kbps | iTunes| RUS |
Аудио#2: 48 kHz, AC3, 2.0, 192 Kbps | HDRezka Studio | RUS |
Аудио#3: 48 kHz, DTS-HD MA, 5.1, 3715 Kbps | Оригинал | ENG |
скриншот   скриншот   скриншот   скриншот   скриншот  

General
Unique ID : 213290447700932069801911489012406730352 (0xA0763EFA5FA680B9B23E5E337630BE70)
Complete name : D:Video1117.Days.in.Entebbe.2018.D.BDREMUX.1080p.ExKinoRay.mkv
Format : Matroska
Format version : Version 4 / Version 2
File size : 29.6 GiB
Duration : 1 h 47 min
Overall bit rate mode : Variable
Overall bit rate : 39.6 Mb/s
Movie name : 7 Days in Entebbe 2018 from ExKinoRay
Encoded date : UTC 2018-06-26 10:35:21
Writing application : mkvmerge v7.3.0 ('Nouages') 64bit built on Oct 22 2014 18:53:34
Writing library : libebml v1.3.0 + libmatroska v1.4.1

Video
ID : 1
Format : AVC
Format/Info : Advanced Video Codec
Format profile : High@L4.1
Format settings : CABAC / 4 Ref Frames
Format settings, CABAC : Yes
Format settings, ReFrames : 4 frames
Codec ID : V_MPEG4/ISO/AVC
Duration : 1 h 47 min
Bit rate mode : Variable
Bit rate : 35.3 Mb/s
Maximum bit rate : 37.0 Mb/s
Width : 1 920 pixels
Height : 1 080 pixels
Display aspect ratio : 16:9
Frame rate mode : Constant
Frame rate : 23.976 (24000/1001) FPS
Color space : YUV
Chroma subsampling : 4:2:0
Bit depth : 8 bits
Scan type : Progressive
Bits/(Pixel*Frame) : 0.710
Stream size : 26.4 GiB (89%)
Language : English
Default : Yes
Forced : No

Audio #1
ID : 2
Format : AC-3
Format/Info : Audio Coding 3
Codec ID : A_AC3
Duration : 1 h 46 min
Bit rate mode : Constant
Bit rate : 384 kb/s
Channel(s) : 6 channels
Channel positions : Front: L C R, Side: L R, LFE
Sampling rate : 48.0 kHz
Frame rate : 31.250 FPS (1536 SPF)
Bit depth : 16 bits
Compression mode : Lossy
Stream size : 294 MiB (1%)
Title : iTunes
Language : Russian
Service kind : Complete Main
Default : Yes
Forced : Yes

Audio #2
ID : 3
Format : AC-3
Format/Info : Audio Coding 3
Codec ID : A_AC3
Duration : 1 h 46 min
Bit rate mode : Constant
Bit rate : 192 kb/s
Channel(s) : 2 channels
Channel positions : Front: L R
Sampling rate : 48.0 kHz
Frame rate : 31.250 FPS (1536 SPF)
Bit depth : 16 bits
Compression mode : Lossy
Stream size : 147 MiB (0%)
Title : MVO [HDRezka Studio]
Language : Russian
Service kind : Complete Main
Default : No
Forced : No

Audio #3
ID : 4
Format : DTS
Format/Info : Digital Theater Systems
Format profile : MA / Core
Codec ID : A_DTS
Duration : 1 h 47 min
Bit rate mode : Variable / Constant
Bit rate : 3 715 kb/s / 1 509 kb/s
Channel(s) : 6 channels
Channel positions : Front: L C R, Side: L R, LFE
Sampling rate : 48.0 kHz
Frame rate : 93.750 FPS (512 SPF)
Bit depth : 24 bits
Compression mode : Lossless / Lossy
Stream size : 2.78 GiB (9%)
Title : Original
Language : English
Default : No
Forced : No

Text
ID : 5
Format : UTF-8
Codec ID : S_TEXT/UTF8
Codec ID/Info : UTF-8 Plain Text
Duration : 1 h 42 min
Bit rate : 44 b/s
Count of elements : 1126
Stream size : 33.5 KiB (0%)
Title : SDH
Language : English
Default : No
Forced : No

Menu
00:00:00.000 : en:00:00:00.000
00:02:32.569 : en:00:02:32.569
00:06:17.669 : en:00:06:17.669
00:12:00.261 : en:00:12:00.261
00:19:00.431 : en:00:19:00.431
00:24:11.575 : en:00:24:11.575
00:28:10.606 : en:00:28:10.606
00:32:43.420 : en:00:32:43.420
00:38:10.413 : en:00:38:10.413
00:44:32.545 : en:00:44:32.545
00:49:31.468 : en:00:49:31.468
00:53:06.016 : en:00:53:06.016
00:58:22.708 : en:00:58:22.708
01:04:04.549 : en:01:04:04.549
01:08:07.625 : en:01:08:07.625
01:16:13.986 : en:01:16:13.986
01:21:11.617 : en:01:21:11.617
01:28:57.999 : en:01:28:57.999
01:37:31.846 : en:01:37:31.846
01:39:09.902 : en:01:39:09.902

pb.wtf



Скачать Операция «Шаровая молния» через торрент http://pic1.kartinco.top/images/11/spzr6.jpg Скачать фильм Операция «Шаровая молния» через торрент бесплантно в хорошем качестве Описание: В 1976 году самолет, следовавший из Тель-Авива в Париж, был захвачен террористами и совершил вынужденную посадку в аэропорту ... 10 10 4
Info! Серебряная раздача, засчитывается только 50% скачанного.
Торрент: Зарегистрирован [2018-06-26 10:54] · скачан: 49 раз
Статус: √ проверено
Размер: 29.58 GB
Как cкачать? Как скачать Операция «Шаровая молния» через торрент | qTorrent

% Раздел Тема Автор DL S | L
Фильмы [HD 720p, 1080p] (Хороший звук DUB, MVO) [ 5.95 GB ] Операция «Шаровая молния» / Entebbe [2018 BDRip 720p] MVO [HDRezka Studio] +DUB [ R5] bober100 Скачать
1 | 0
Фильмы [HD 720p, 1080p] (Хороший звук DUB, MVO) [ 12.76 GB ] Операция «Шаровая молния» / Entebbe [2018 BDRip 1080p] MVO [HDRezka Studio] +DUB [ R5] bober100 Скачать
1 | 0
Ultra HD (UHD: 2K, 4K, 8K) — видео сверхвысокой чёткости [ 17.17 GB ] Операция «Шаровая молния» / Entebbe [2018 UHD WEBRip 2160p] MVO [HDRezka Studio] + bober100 Скачать
1 | 0
Фильмы (HD 720p, 1080p) (48-60 fps) [ 13.35 GB ] Операция «Шаровая молния» / Entebbe [2018 BDRip 1080p 60 fps] bober100 Скачать
2 | 0
Фильмы 2018 [DVDrip, WEB-DLRip, HDrip] (DUB, MVO) [ 1.46 GB ] Операция «Шаровая молния» / Entebbe [2018 BDRip] - [] Twi7ter Скачать
1 | 0
Фильмы 2018 [DVDrip, WEB-DLRip, HDrip] (DUB, MVO) [ 1.68 GB ] Операция «Шаровая молния» / Entebbe [2018 BDRip-AVC] MVO [HDRezka Studio] + bober100 Скачать
1 | 0
Фильмы 2018 [DVDrip, WEB-DLRip, HDrip] (DUB, MVO) [ 2.05 GB ] Операция «Шаровая молния» / Entebbe [2018 HDRip] bober100 Скачать
1 | 0

28-11-2019 20:33  

Отключить всю рекламу на сайте

    Дорогой пользователь! Огромная просьба, поблагодарите релизера, оцените раздачу и оставьте свои комментарий, если Вы скачали Операция «Шаровая молния» через торрент бесплатно! Внесите свою лепту в развитие PiratBit!
    Комментировать посты могут только пользователи прошедшие не сложную регистрацию
    Показать сообщения:    

    Операция «Шаровая молния» через торрент
    Скачать бесплатно Операция «Шаровая молния»
    Операция «Шаровая молния» скачать торрент
    Операция «Шаровая молния» смотреть онлайн
    Cкачать фильм Операция «Шаровая молния» бесплатно
    Операция «Шаровая молния» скачать торрент в хорошем качестве
    Операция «Шаровая молния» смотреть онлайн бесплатно в хорошем качестве


    Вы не можете начинать темы
    Вы не можете отвечать на сообщения
    Вы не можете редактировать свои сообщения
    Вы не можете удалять свои сообщения
    Вы не можете голосовать в опросах
    Вы не можете прикреплять файлы к сообщениям
    Вы можете скачивать файлы