Ссылка на приватное зеркало нашего сайта всего за 1$. Внимание количество ограничено!!!

2 сезон

iTunes

1 сезон

1

2 сезон

2 сезон

iTunes

1 сезон

RePack

30

Ultimate

ВАЖНО

ИГРА 18+

pack

RePack

MK11
pack

Забери бонус

RePack

jed

!!Акция!!

Alien_Rage

RePack

fifa19

RePack

Assassins Creed: Odyssey

RePack

NEED FOR SPEED™ PAYBACK

4 сезон

9 сезон

Бесстыжие 9 сезон

Все сериалы

все сериалы на PB.wtf

RePack

FAR CRY 5
  

Голиаф / Goliath / Сезон: 02 / Серии 01-08 из 08 (Лоуренс Триллинг, Алик Сахаров, Билл Д Элиа) [2018, драма, WEBRip] [MVO] (Profix Media) pb.wtf

Голиаф через торрент pb.wtf

Размер: 3.98 GB | Добавлен: 2 года 4 мес. назад | Торрент скачан:16 раз
Скачать  

26-06-2018 12:52 Голиаф Скачать торрент  


Голиаф | Goliath

• Год выпуска: 2018
• Страна: США
• Жанр: драма
• Продолжительность: 1х~ 00:55:00
• Перевод: Профессиональный (многоголосный, закадровый) | Profix Media

• Режиссёр: Лоуренс Триллинг, Алик Сахаров, Билл Д Элиа

• В ролях: Билли Боб Торнтон, Уильям Хёрт, Мария Белло, Оливия Тирлби, Нина Арианда, Молли Паркер, Таня Рэймонд, Сара Уайнтер, Бритен Далтон, Дэймон Гаптон

• Описание: В руки опального адвоката, гоняющегося за машинами скорой помощи в поисках новых клиентов, попадает дело, которое может принести ему искупление или, по крайней мере, возможность отомстить фирме, вышвырнувшей его на улицу



• Качество: WEBRip
• Формат: AVI
• Видео: XviD, ~ 1317 Кбит/с, 720х400, 23,976 fps
• Аудио: MP3, 48 kHz, 2 ch, 256 kbps
• Субтитры: отсутствуют
General
Complete name : F:\Goliath.S02.WEBRip.Profix.Media\Goliath.S02E01.WEBRip.Profix.Media.avi
Format : AVI
Format/Info : Audio Video Interleave
File size : 472 MiB
Duration : 50 min 2 s
Overall bit rate : 1 317 kb/s
Writing application : Lavf57.82.101

Video
ID : 0
Format : xvid
Codec ID : xvid
Duration : 50 min 2 s
Bit rate : 1 000 kb/s
Width : 720 pixels
Height : 400 pixels
Display aspect ratio : 16:9
Frame rate : 23.976 (24000/1001) FPS
Scan type : Progressive
Bits/(Pixel*Frame) : 0.145
Stream size : 358 MiB (76%)
Title : Video Track

Audio
ID : 1
Format : MPEG Audio
Format version : Version 1
Format profile : Layer 3
Format settings : Joint stereo
Mode : Joint stereo
Codec ID : 55
Codec ID/Hint : MP3
Duration : 50 min 2 s
Bit rate mode : Constant
Bit rate : 256 kb/s
Channel(s) : 2 channels
Sampling rate : 48.0 kHz
Compression mode : Lossy
Stream size : 91.6 MiB (19%)
Alignment : Aligned on interleaves
Title : Audio Track
скриншот  скриншот  скриншот  
Когда раздача ведётся путём добавления новых серий, при каждом добавлении создётся новый торрент. Чтобы начать докачку новой серии, пользователям необходимо сделать следующее:
(1) остановить скачивание,
(2) удалить старый торрент у себя из клиента (старые серии удалять не надо),
(3) скачать новый торрент и запустить его у себя в клиенте вместо старого, при этом указать клиенту путь в старую папку, куда и должно происходить скачивание новых серий.
Ваш клиент при этом должен произвести хеширование (проверку) старой папки (если не производит сам - помогите ему сделать это), и будет докачивать только те серии, которых у вас ещё нет. Старые серии при этом не удаляются, а продолжают раздаваться!
Eсли вы уже удалили старые серии, то предотвратить повторную закачку старых серий можно, отжав галочку в соответсвующих местах при запуске нового торрента. По возможности, желательно не удалять старые серии как можно дольше, чтобы релизёр не столько продолжал раздавать старые серии, а смог сконцентрироваться на новых.
pb.wtf



Скачать Голиаф через торрент http://b.radikal.ru/b08/1806/df/bfe1594fd65b.jpg Скачать фильм Голиаф через торрент бесплантно в хорошем качестве Описание: В руки опального адвоката, гоняющегося за машинами скорой помощи в поисках новых клиентов, попадает дело, которое может принести ... 7 10 2
Торрент: Зарегистрирован [2018-07-17 16:51] · скачан: 16 раз
Статус: √ проверено
Размер: 3.98 GB
Как cкачать? Как скачать Голиаф через торрент | qTorrent

% Раздел Тема Автор DL S | L
Зарубежные сериалы [ 4.68 GB ] Голиаф / Goliath / Сезон: 02 / Серии 01-08 из 08 [2018 WEBRip] [MVO] killermax2013 Скачать
1 | 0
Зарубежные сериалы [ 15.83 GB ] Голиаф / Goliath / Сезон: 02 / Серии 01-08 из 08 [2018 WEBRip 720p] [DVO] killermax2013 Скачать
1 | 0
Зарубежные сериалы [ 17.8 GB ] Голиаф / Goliath / Сезон: 02 / Серии 01-08 из 08 [2018 WEBRip 1080p] [MVO] killermax2013 Скачать
1 | 0

28-11-2019 20:33  

Отключить всю рекламу на сайте

    Дорогой пользователь! Огромная просьба, поблагодарите релизера, оцените раздачу и оставьте свои комментарий, если Вы скачали Голиаф через торрент бесплатно! Внесите свою лепту в развитие PiratBit!
    Комментировать посты могут только пользователи прошедшие не сложную регистрацию
    Показать сообщения:    

    Голиаф через торрент
    Скачать бесплатно Голиаф
    Голиаф скачать торрент
    Голиаф смотреть онлайн
    Cкачать фильм Голиаф бесплатно
    Голиаф скачать торрент в хорошем качестве
    Голиаф смотреть онлайн бесплатно в хорошем качестве


    Вы не можете начинать темы
    Вы не можете отвечать на сообщения
    Вы не можете редактировать свои сообщения
    Вы не можете удалять свои сообщения
    Вы не можете голосовать в опросах
    Вы не можете прикреплять файлы к сообщениям
    Вы можете скачивать файлы