Ссылка на приватное зеркало нашего сайта всего за 1$. Внимание количество ограничено!!!

2 сезон

iTunes

1 сезон

1

2 сезон

2 сезон

iTunes

1 сезон

RePack

30

Ultimate

ВАЖНО

ИГРА 18+

pack

RePack

MK11
pack

Забери бонус

RePack

jed

!!Акция!!

Alien_Rage

RePack

fifa19

RePack

Assassins Creed: Odyssey

RePack

NEED FOR SPEED™ PAYBACK

4 сезон

9 сезон

Бесстыжие 9 сезон

Все сериалы

все сериалы на PB.wtf

RePack

FAR CRY 5
  

Проповедник / Preacher / Сезон: 3 / Серии: 1-10 из 10 (Эван Голдберг, Сет Роген, Майкл Словис) [2018, Фэнтези, драма, детектив, приключения, WEB-DL 1080p] DVO [Кубик в Кубе] pb.wtf

Проповедник через торрент pb.wtf

Размер: 27.6 GB | Добавлен: 2 года 2 мес. назад | Торрент скачан:84 раза
Скачать  

27-06-2018 02:23 Проповедник Скачать торрент  

Проповедник / Preacher
Год выпуска: 2018
Страна: США
Жанр: Фэнтези, драма, детектив, приключения
Продолжительность: ~ 00:45:00
Перевод: Профессиональный двухголосый | Кубик в Кубе
Субтитры: Английские

Режиссер: Эван Голдберг, Сет Роген, Майкл Словис

rating

В ролях:

Доминик Купер, Том Брук, У. Эрл Браун, Йен Коллетти, Джозеф Гилган, Люси Гриффитс, Джеки Эрл Хейли, Рут Негга, Дерек Уилсон, Анатол Юсеф

Описание:

Священник Джесси Кастер по воле случая стал носителем внутри своего естества странного существа по имени Генезис. Это дитя совокупления ангела и демона представляет собой одновременно чистый идеал и квинтэссенцию света, но также сгусток абсолютного зла. Генезис — единственное существо во Вселенной, которое может встать вровень с Богом, если того пожелает, а его носитель автоматически становится самым могущественным существом в материальном мире. И это проповедник Кастер.



Качество: WEB-DL 1080p
Формат: MKV

Видео: MPEG-4 AVC, ~ 10000 Кбит/с, 1920x1080
Аудио#1: Русский (AC3, 6 ch, 640 Кбит/c)
Аудио#2: английский (AC3, 6 ch, 640 Кбит/c)
скриншот   скриншот   скриншот  

Общее
Уникальный идентификатор : 316977709536230471601059657805733284383 (0xEE77AFAE12FACDA930E3E4F786F3CA1F)
Полное имя : D:\Preacher.S03.1080p.WEB-DL.KvK.CasStudio.TV\Preacher.S03E01.Angelville.1080p.WEB-DL.KvK.CasStudio.TV.mkv
Формат : Matroska
Версия формата : Version 4 / Version 2
Размер файла : 3,31 Гбайт
Продолжительность : 41 м. 55 с.
Общий поток : 11,3 Мбит/сек
Название фильма : Preacher 03x01 (Angelville) - release by messafan for CasStudio.TV
Дата кодирования : UTC 2018-06-26 22:51:54
Программа кодирования : mkvmerge v22.0.0 ('At The End Of The World') 64-bit
Библиотека кодирования : libebml v1.3.5 + libmatroska v1.4.8

Видео
Идентификатор : 1
Формат : AVC
Формат/Информация : Advanced Video Codec
Профиль формата : High@L4
Параметр CABAC формата : Да
Параметр RefFrames формата : 4 кадра
Идентификатор кодека : V_MPEG4/ISO/AVC
Продолжительность : 41 м. 55 с.
Битрейт : 10,0 Мбит/сек
Ширина : 1920 пикселей
Высота : 1080 пикселей
Соотношение сторон : 16:9
Режим частоты кадров : Постоянный
Частота кадров : 23,976 (24000/1001) кадра/сек
Цветовое пространство : YUV
Субдискретизация насыщенности : 4:2:0
Битовая глубина : 8 бит
Тип развёртки : Прогрессивная
Бит/(Пиксели*Кадры) : 0.202
Размер потока : 2,94 Гбайт (89%)
Default : Да
Forced : Нет
Цветовой диапазон : Limited
Основные цвета : BT.709
Характеристики трансфера : BT.709
Коэффициенты матрицы : BT.709

Аудио #1
Идентификатор : 2
Формат : AC-3
Формат/Информация : Audio Coding 3
Расширение режима : CM (complete main)
Параметр Endianness формата : Big
Идентификатор кодека : A_AC3
Продолжительность : 41 м. 55 с.
Вид битрейта : Постоянный
Битрейт : 640 Кбит/сек
Каналы : 6 каналов
Расположение каналов : Front: L C R, Side: L R, LFE
Частота : 48,0 КГц
Частота кадров : 31,250 кадров/сек (1536 spf)
Метод сжатия : С потерями
Размер потока : 192 Мбайт (6%)
Заголовок : KvK DD5.1 @ 640kbps
Язык : Russian
Default : Да
Forced : Нет

Аудио #2
Идентификатор : 3
Формат : E-AC-3
Формат/Информация : Audio Coding 3
Параметр Endianness формата : Big
Идентификатор кодека : A_EAC3
Продолжительность : 41 м. 55 с.
Вид битрейта : Постоянный
Битрейт : 640 Кбит/сек
Каналы : 6 каналов
Расположение каналов : Front: L C R, Side: L R, LFE
Частота : 48,0 КГц
Частота кадров : 187,500 кадров/сек (256 spf)
Метод сжатия : С потерями
Размер потока : 192 Мбайт (6%)
Заголовок : English DD5.1 @ 640kbps
Язык : English
Default : Нет
Forced : Нет

Текст
Идентификатор : 4
Формат : UTF-8
Идентификатор кодека : S_TEXT/UTF8
Идентификатор кодека/Информация : UTF-8 Plain Text
Продолжительность : 40 м. 28 с.
Битрейт : 45 бит/сек
ElementCount : 472
Размер потока : 13,6 Кбайт (0%)
Заголовок : SDH
Язык : English
Default : Нет
Forced : Нет

Внимание! Раздача ведётся путём добавления новых серий; при каждом добавлении создаётся новый торрент. Чтобы начать докачку новой серии, пользователям необходимо сделать следующее:
(1) остановить скачивание,
(2) удалить старый торрент у себя из клиента (старые серии удалять не надо),
(3) скачать новый торрент и запустить его у себя в клиенте вместо старого, при этом указать клиенту путь в старую папку куда и должно происходить скачивание новых серий.
Ваш клиент при этом должен произвести хеширование (проверку) старой папки (если не производит сам - помогите ему сделать это), и будет докачивать только те серии которых у вас ещё нет. Старые серии при этом не удаляются, а продолжают раздаваться!
Eсли вы уже удалили старые серии, то предотвратить повторную закачку старых серий можно, отжав галочку в соответствующих местах при запуске нового торрента. По возможности, желательно не удалять старые серии как можно дольше чтобы релизёр не столько продолжал раздавать старые серии, а смог сконцентрироваться на новых.
pb.wtf



Скачать Проповедник через торрент http://img11.lostpic.net/2018/08/15/368b9e6ec310bf4c78cccd2e1dc94b2e.jpg Скачать фильм Проповедник через торрент бесплантно в хорошем качестве Описание: Священник Джесси Кастер по воле случая стал носителем внутри своего естества странного существа по имени Генезис. Это дитя ... 10 10 7
Info! Золотая раздача, скачанное не засчитывается.
Торрент: Зарегистрирован [2018-09-03 02:49] · скачан: 84 раз
Статус: √ проверено
Размер: 27.6 GB
Как cкачать? Как скачать Проповедник через торрент | qTorrent

% Раздел Тема Автор DL S | L
Зарубежные сериалы [ 4.99 GB ] Проповедник / Preacher / Сезон: 3 / Серии: 1-10 из 10 [2018 WEB-DLRip] MVO [Jaskier] bober100 Скачать
1 | 0
Зарубежные сериалы [ 14.81 GB ] Проповедник / Preacher / Сезон: 3 / Серии: 1-10 из 10 [2018 WEB-DL 720p] [MVO] killermax2013 Скачать
1 | 0
Зарубежные сериалы [ 9.9 GB ] Проповедник / Preacher / Сезон: 3 / Серии: 1-10 из 10 [2018 WEBRip 720p] [MVO] killermax2013 Скачать
1 | 0
Зарубежные сериалы [ 8.53 GB ] Проповедник / Preacher / Сезон: 3 / Серии: 1-10 из 10 [2018 WEB-DLRip] [MVO] [AlexFilm] killermax2013 Скачать
1 | 0
Зарубежные сериалы [ 9.9 GB ] Проповедник / Preacher / Сезон: 3 / Серии: 1-10 из 10 [2018 WEB-DL 720p] MVO [Jaskier] bober100 Скачать
1 | 0
Зарубежные сериалы [ 9.11 GB ] Проповедник / Preacher / Сезон: 3 / Серии: 1-10 из 10 [2018 WEB-DLRip-AVC] [MVO] killermax2013 Скачать
1 | 0
Зарубежные сериалы [ 26.03 GB ] Проповедник / Preacher / Сезон: 3 / Серии: 1-10 из 10 [2018 WEB-DL 1080p] MVO [AlexFilm] bober100 Скачать
1 | 0

28-11-2019 20:33  

Отключить всю рекламу на сайте

    Дорогой пользователь! Огромная просьба, поблагодарите релизера, оцените раздачу и оставьте свои комментарий, если Вы скачали Проповедник через торрент бесплатно! Внесите свою лепту в развитие PiratBit!
    Комментировать посты могут только пользователи прошедшие не сложную регистрацию
    Показать сообщения:    

    Проповедник через торрент
    Скачать бесплатно Проповедник
    Проповедник скачать торрент
    Проповедник смотреть онлайн
    Cкачать фильм Проповедник бесплатно
    Проповедник скачать торрент в хорошем качестве
    Проповедник смотреть онлайн бесплатно в хорошем качестве


    Вы не можете начинать темы
    Вы не можете отвечать на сообщения
    Вы не можете редактировать свои сообщения
    Вы не можете удалять свои сообщения
    Вы не можете голосовать в опросах
    Вы не можете прикреплять файлы к сообщениям
    Вы можете скачивать файлы