Ссылка на приватное зеркало всего за 1$. Внимание количество ограничено!!!

OK

1+1

iTunes

мы

OK

1

WEB-DLRip

Джокер

Пифагор

Ведьмак / The Witcher сериал

Лицензия

ПШазам

ОК

Оно 2

iTunes

30
pack

Вам бонус

ВАЖНО

!!Акция!!

Alien_RageХит недели

RePack

Resident Evil 21

ИГРА 18+

pack

RePack

jed

RePack

fifa19

RePack

Assassins Creed: Odyssey

RePack

NEED FOR SPEED™ PAYBACK

4 сезон

9 сезон

Бесстыжие 9 сезон

Все сериалы

все сериалы на PB.wtf

RePack

FAR CRY 5
  

Тайны ночного клуба / Nightclub Secrets / Bottle Girl (Джо Менендес) [2018, триллер, HDTVRip 720p] MVO ["Синема УС"] pb.wtf

Тайны ночного клуба через торрент pb.wtf

Размер: 2.93 GB | Добавлен: 1 год 6 мес. назад | Торрент скачан:65 раз
Скачать  

27-06-2018 08:55 Тайны ночного клуба Скачать торрент  

Тайны ночного клуба / Nightclub Secrets / Bottle GirlГод выпуска: 2018
Страна: США
Жанр: триллер
Продолжительность: 01:26:30
Перевод: Любительский (многоголосый) | "Синема УС"
Субтитры: отсутствуют

Режиссер: Джо Менендес

rating

В ролях:

Кэти Моррис, Гиги Райс, Чути Тью, Рэйчел Хендрикс, Гари Викс, Илана Гуральник, Джош Вентура, Бенжамин Уивер, Оскар Торрес

Описание:

Когда сестра Зои, Рейчел, сводит счеты с жизнью, Зои решает лично докопаться до правды и узнать, что же на самом деле случилось с её сестрой. Она находит дневник Рейчел, который приведёт её в запутанный, неизведанный мир ночных клубов со множеством тайн и секретов.

Качество: HDTVRip 720p
Формат: MKV

Видео: h.264, 4 461 kb/s, 1280x720
Аудио#1: Русский, (AC3, 2 ch, 384 Кбит/с)
скриншот  скриншот  скриншот  

Общее
Уникальный идентификатор : 240114772619576418385828738162187939851 (0xB4A46C4E2B7C2DE991D110082FA9B00B)
Полное имя : D:\Nightclub.Secrets.2018.P.HDTV.72Op_KOSHARA.mkv
Формат : Matroska
Версия формата : Version 2
Размер файла : 2,93 Гбайт
Продолжительность : 1 ч. 26 м.
Режим общего битрейта : Переменный
Общий поток : 4847 Кбит/сек
Дата кодирования : UTC 2018-06-22 13:08:14
Программа кодирования : mkvmerge v8.3.0 ('Over the Horizon') 64bit
Библиотека кодирования : libebml v1.3.1 + libmatroska v1.4.2

Видео
Идентификатор : 1
Формат : AVC
Формат/Информация : Advanced Video Codec
Профиль формата : High@L4.1
Параметр CABAC формата : Да
Параметр RefFrames формата : 4 кадра
Идентификатор кодека : V_MPEG4/ISO/AVC
Продолжительность : 1 ч. 26 м.
Вид битрейта : Переменный
Битрейт : 4461 Кбит/сек
Максимальный битрейт : 5000 Кбит/сек
Ширина : 1280 пикселей
Высота : 720 пикселей
Соотношение сторон : 16:9
Режим частоты кадров : Постоянный
Частота кадров : 23,976 (24000/1001) кадра/сек
Стандарт вещания : Component
Цветовое пространство : YUV
Субдискретизация насыщенности : 4:2:0
Битовая глубина : 8 бит
Тип развёртки : Прогрессивная
Бит/(Пиксели*Кадры) : 0.198
Размер потока : 2,64 Гбайт (90%)
Default : Да
Forced : Нет
Цветовой диапазон : Limited
Основные цвета : BT.709
Характеристики трансфера : BT.709
Коэффициенты матрицы : BT.709

Аудио
Идентификатор : 2
Формат : AC-3
Формат/Информация : Audio Coding 3
Расширение режима : CM (complete main)
Параметр Endianness формата : Big
Идентификатор кодека : A_AC3
Продолжительность : 1 ч. 26 м.
Вид битрейта : Постоянный
Битрейт : 384 Кбит/сек
Каналы : 2 канала
Расположение каналов : Front: L R
Частота : 48,0 КГц
Частота кадров : 31,250 кадров/сек (1536 spf)
Метод сжатия : С потерями
Размер потока : 238 Мбайт (8%)
Default : Да
Forced : Нет

pb.wtf



Скачать Тайны ночного клуба через торрент http://img11.lostpic.net/2018/06/27/ba1c572082a754ac58279f68ceba8121.jpg Скачать фильм Тайны ночного клуба через торрент бесплантно в хорошем качестве Описание: Когда сестра Зои, Рейчел, сводит счеты с жизнью, Зои решает лично докопаться до правды и узнать, что же на самом деле случилось с ... 10 10 3
Торрент: Зарегистрирован [2018-06-27 08:55] · скачан: 65 раз
Статус: T временная
Размер: 2.93 GB
Как cкачать? Как скачать Тайны ночного клуба через торрент | qTorrent

% Раздел Тема Автор DL S | L
T Фильмы (мультфильмы) cо спонсором показа (Новинки AVI/MKV) [ 1.37 GB ] Тайны ночного клуба / Nightclub Secrets / Bottle Girl [2018 HDTVRip] MVO ["Синема УС"] bober100 Скачать
1 | 0

28-11-2019 20:33  

Отключить всю рекламу на сайте

27-06-2018 14:27 Тайны ночного клуба Скачать торрент  

анорексия на постере.беда.уже не интересно.pb.wtf



28-06-2018 08:04 Тайны ночного клуба Скачать торрент  

SASHA66 писал(а):

анорексия на постере.беда.уже не интересно.

она же под прикрытием, так что все норм))pb.wtf



    Дорогой пользователь! Огромная просьба, поблагодарите релизера, оцените раздачу и оставьте свои комментарий, если Вы скачали Тайны ночного клуба через торрент бесплатно! Внесите свою лепту в развитие PiratBit!
    Комментировать посты могут только пользователи прошедшие не сложную регистрацию
    Показать сообщения:    

    Тайны ночного клуба через торрент
    Скачать бесплатно Тайны ночного клуба
    Тайны ночного клуба скачать торрент
    Тайны ночного клуба смотреть онлайн
    Cкачать фильм Тайны ночного клуба бесплатно
    Тайны ночного клуба скачать торрент в хорошем качестве
    Тайны ночного клуба смотреть онлайн бесплатно в хорошем качестве


    Вы не можете начинать темы
    Вы не можете отвечать на сообщения
    Вы не можете редактировать свои сообщения
    Вы не можете удалять свои сообщения
    Вы не можете голосовать в опросах
    Вы не можете прикреплять файлы к сообщениям
    Вы можете скачивать файлы