Ссылка на приватное зеркало всего за 1$. Внимание количество ограничено!!!

OK

1+1

iTunes

мы

OK

1

WEB-DLRip

Джокер

Пифагор

Ведьмак / The Witcher сериал

iTunes

ПШазам

ОК

Оно 2

iTunes

30
pack

Вам бонус

ВАЖНО

!!Акция!!

Alien_RageХит недели

RePack

Resident Evil 21

ИГРА 18+

pack

RePack

jed

RePack

fifa19

RePack

Assassins Creed: Odyssey

RePack

NEED FOR SPEED™ PAYBACK

4 сезон

9 сезон

Бесстыжие 9 сезон

Все сериалы

все сериалы на PB.wtf

RePack

FAR CRY 5
  

Кампус с привидениями / Hontido Kyanpasu / Hônteddo kyanpasu (Сатоси Такэмото) [2016, Мелодрама, фэнтези, BDRip 720p] MVO [КОЛОБОК] pb.wtf

Кампус с привидениями через торрент pb.wtf

Размер: 4.17 GB | Добавлен: 1 год 7 мес. назад | Торрент скачан:13 раз
Скачать  

27-06-2018 09:12 Кампус с привидениями Скачать торрент  

Кампус с привидениями / Hontido Kyanpasu / Hônteddo kyanpasuГод выпуска: 2016
Страна: Япония
Жанр: Мелодрама, фэнтези
Продолжительность: 01:34:23
Перевод: Любительский (многоголосый) | КОЛОБОК
Субтитры: отсутствуют

Режиссер: Сатоси Такэмото

rating

В ролях:

Юма Накаяма, Харука Симадзаки, Маридзюн Такахаси, Кэнтаро Ясуи, Такуро Оно

Описание:

Ягами Синдзи - студент одного престижного университета, влюбленный в Нада Коёми. Кроме того у Ягами есть одна способность: молодой человек может видеть призраков. Чтобы защитить свою возлюбленную, он вступает в оккультный клуб при университете. Вместе с одноклубниками Ягами пытается выяснить причину появления привидений в кампусе университета. (с) Ангел с генами Дьявола

Качество: BDRip 720p
Формат: MKV

Видео: h.264, 5 871 Кбит/с, 1280x690
Аудио#1: Русский (AC3, 2 ch, 448 Кбит/с)
скриншот  скриншот  скриншот  

Общее
Уникальный идентификатор : 230023304748106928670271734004185553948 (0xAD0CE0867D02D936A3FBA4E6BE97DC1C)
Полное имя : D:\Haunted.Campus.2016.Pk.BDRip.72Op.mkv
Формат : Matroska
Версия формата : Version 2
Размер файла : 4,17 Гбайт
Продолжительность : 1 ч. 34 м.
Режим общего битрейта : Переменный
Общий поток : 6321 Кбит/сек
Дата кодирования : UTC 2018-06-22 11:31:58
Программа кодирования : mkvmerge v8.3.0 ('Over the Horizon') 64bit
Библиотека кодирования : libebml v1.3.1 + libmatroska v1.4.2

Видео
Идентификатор : 1
Формат : AVC
Формат/Информация : Advanced Video Codec
Профиль формата : High@L4.1
Параметр CABAC формата : Да
Параметр RefFrames формата : 4 кадра
Идентификатор кодека : V_MPEG4/ISO/AVC
Продолжительность : 1 ч. 34 м.
Вид битрейта : Переменный
Битрейт : 5871 Кбит/сек
Максимальный битрейт : 6800 Кбит/сек
Ширина : 1280 пикселей
Высота : 690 пикселей
Соотношение сторон : 1,85:1
Режим частоты кадров : Постоянный
Частота кадров : 23,976 (24000/1001) кадра/сек
Стандарт вещания : Component
Цветовое пространство : YUV
Субдискретизация насыщенности : 4:2:0
Битовая глубина : 8 бит
Тип развёртки : Прогрессивная
Бит/(Пиксели*Кадры) : 0.271
Размер потока : 3,79 Гбайт (91%)
Default : Да
Forced : Нет
Цветовой диапазон : Limited
Основные цвета : BT.709
Характеристики трансфера : BT.709
Коэффициенты матрицы : BT.709

Аудио
Идентификатор : 2
Формат : AC-3
Формат/Информация : Audio Coding 3
Расширение режима : CM (complete main)
Параметр Endianness формата : Big
Идентификатор кодека : A_AC3
Продолжительность : 1 ч. 34 м.
Вид битрейта : Постоянный
Битрейт : 448 Кбит/сек
Каналы : 2 канала
Расположение каналов : Front: L R
Частота : 48,0 КГц
Частота кадров : 31,250 кадров/сек (1536 spf)
Метод сжатия : С потерями
Размер потока : 302 Мбайт (7%)
Default : Да
Forced : Нет

pb.wtf



Скачать Кампус с привидениями через торрент http://img11.lostpic.net/2018/06/27/51fa4231912095ab19436a34ad4ee581.jpg Скачать фильм Кампус с привидениями через торрент бесплантно в хорошем качестве Описание: Ягами Синдзи - студент одного престижного университета, влюбленный в Нада Коёми. Кроме того у Ягами есть одна способность: ... 8.2 10 5
Торрент: Зарегистрирован [2018-06-27 09:12] · скачан: 13 раз
Статус: # сомнительно
Размер: 4.17 GB
Как cкачать? Как скачать Кампус с привидениями через торрент | qTorrent

% Раздел Тема Автор DL S | L
T Фильмы (мультфильмы) cо спонсором показа (Новинки AVI/MKV) [ 1.37 GB ] Кампус с привидениями / Hontido Kyanpasu / Hônteddo kyanpasu [2016 Мело HDRip] MVO [КОЛОБОК] bober100 Скачать
1 | 0

28-11-2019 20:33  

Отключить всю рекламу на сайте

    Дорогой пользователь! Огромная просьба, поблагодарите релизера, оцените раздачу и оставьте свои комментарий, если Вы скачали Кампус с привидениями через торрент бесплатно! Внесите свою лепту в развитие PiratBit!
    Комментировать посты могут только пользователи прошедшие не сложную регистрацию
    Показать сообщения:    

    Кампус с привидениями через торрент
    Скачать бесплатно Кампус с привидениями
    Кампус с привидениями скачать торрент
    Кампус с привидениями смотреть онлайн
    Cкачать фильм Кампус с привидениями бесплатно
    Кампус с привидениями скачать торрент в хорошем качестве
    Кампус с привидениями смотреть онлайн бесплатно в хорошем качестве


    Вы не можете начинать темы
    Вы не можете отвечать на сообщения
    Вы не можете редактировать свои сообщения
    Вы не можете удалять свои сообщения
    Вы не можете голосовать в опросах
    Вы не можете прикреплять файлы к сообщениям
    Вы можете скачивать файлы