Ссылка на приватное зеркало всего за 1$. Внимание количество ограничено!!!

OK

1+1

iTunes

мы

OK

1

WEB-DLRip

Джокер

Пифагор

Ведьмак / The Witcher сериал

Лицензия

ПШазам

ОК

Оно 2

iTunes

30
pack

Вам бонус

ВАЖНО

!!Акция!!

Alien_RageХит недели

RePack

Resident Evil 21

ИГРА 18+

pack

RePack

jed

!!Акция!!

Alien_Rage

RePack

fifa19

RePack

Assassins Creed: Odyssey

RePack

NEED FOR SPEED™ PAYBACK

4 сезон

9 сезон

Бесстыжие 9 сезон

Все сериалы

все сериалы на PB.wtf

RePack

FAR CRY 5
  

Операция «С новым годом» (Александр Рогожкин) [1996 г., Комедия, DVDRip-AVC, Не требуется Русский] pb.wtf

Операция «С новым годом» через торрент pb.wtf

Размер: 1.46 GB | Добавлен: 1 год 6 мес. назад | Торрент скачан:13 раз
Скачать  

27-06-2018 13:34 Операция «С новым годом» Скачать торрент  

Операция «С новым годом»
Год выпуска: 1996
Страна: Россия
Жанр: Комедия
Продолжительность: 01:49:55
Перевод: Не требуется Русский
Субтитры: Отсутствуют

Режиссер: Александр Рогожкин

rating

В ролях: Алексей Булдаков
Сергей Маковецкий
Леонид Ярмольник
Семён Стругачев
Сергей Русскин
Зоя Буряк
Александр Лыков
Екатерина Дронова
Андрей Краско
Кирилл Ульянов

Описание: В канун Нового года в отделение травмы при разных обстоятельствах попадают несколько человек, включая генерала. С травмой половых органов и с вывихнутой челюстью привозят бизнесмена, благодаря которому в больнице появляются шикарная выпивка и закуска. Из женского отделения приглашаются травмированные дамы, на территории выкапывается и наряжается елка, появляется и знакомый уже милиционер с задержанным, проглотившим медаль блюстителя закона.

Исходник: DVD5 R5
Качество: DVDRip-AVC
Формат: MKV
Видео кодек: AVC
Аудио кодек: AC3
Видео: AVC, 688x426@758x426 , 25.0fps, 1446 Kbps
Аудио#1: AC3 , 2 ch , 48 kHz , 448 kbps
Общее
Уникальный идентификатор : 198001355537931995269788506971467734185 (0x94F5AC8908C46805A5C44AF4C834DCA9)
Полное имя : D:Operatsia.s.novim.godom.1996.DVDRip-AVC.mkv
Формат : Matroska
Версия формата : Version 2
Размер файла : 1,46 Гбайт
Продолжительность : 1 ч. 49 м.
Общий поток : 1896 Кбит/сек
Дата кодирования : UTC 2012-03-27 09:45:02
Программа кодирования : mkvmerge v5.0.1 ('Es ist Sommer') built on Nov 6 2011 16:23:40
Библиотека кодирования : libebml v1.2.2 + libmatroska v1.3.0

Видео
Идентификатор : 1
Формат : AVC
Формат/Информация : Advanced Video Codec
Профиль формата : High@L4.1
Параметр CABAC формата : Да
Параметр ReFrames формата : 11 кадров
Идентификатор кодека : V_MPEG4/ISO/AVC
Продолжительность : 1 ч. 49 м.
Битрейт : 1446 Кбит/сек
Ширина : 688 пикселей
Высота : 426 пикселей
Соотношение сторон : 1,723
Режим частоты кадров : Постоянный
Частота кадров : 25,000 кадров/сек
Цветовое пространство : YUV
Субдискретизация насыщенности : 4:2:0
Битовая глубина : 8 бит
Тип развёртки : Прогрессивная
Бит/(Пиксели*Кадры) : 0.197
Размер потока : 1,08 Гбайт (74%)
Библиотека кодирования : x264 core 119 r2106 07efeb4
Настройки программы : cabac=1 / ref=11 / deblock=1:-1:-1 / analyse=0x3:0x113 / me=umh / subme=9 / psy=1 / psy_rd=1.00:0.20 / mixed_ref=1 / me_range=32 / chroma_me=1 / trellis=1 / 8x8dct=1 / cqm=0 / deadzone=21,11 / fast_pskip=0 / chroma_qp_offset=-3 / threads=3 / sliced_threads=0 / nr=0 / decimate=0 / interlaced=0 / bluray_compat=0 / constrained_intra=0 / bframes=8 / b_pyramid=2 / b_adapt=1 / b_bias=0 / direct=3 / weightb=1 / open_gop=0 / weightp=2 / keyint=250 / keyint_min=25 / scenecut=40 / intra_refresh=0 / rc_lookahead=60 / rc=2pass / mbtree=1 / bitrate=1446 / ratetol=1.0 / qcomp=0.60 / qpmin=0 / qpmax=69 / qpstep=4 / cplxblur=20.0 / qblur=0.5 / ip_ratio=1.40 / aq=1:1.00
Default : Да
Forced : Нет

Аудио
Идентификатор : 2
Формат : AC-3
Формат/Информация : Audio Coding 3
Расширение режима : CM (complete main)
Параметр Endianness формата : Big
Идентификатор кодека : A_AC3
Продолжительность : 1 ч. 49 м.
Вид битрейта : Постоянный
Битрейт : 448 Кбит/сек
Каналы : 2 канала
Расположение каналов : Front: L R
Частота : 48,0 КГц
Битовая глубина : 16 бит
Метод сжатия : С потерями
Размер потока : 352 Мбайт (24%)
Default : Да
Forced : Нет

pb.wtf



Скачать Операция «С новым годом» через торрент https://a.radikal.ru/a40/1806/90/5c3f3836abab.png Скачать фильм Операция «С новым годом» через торрент бесплантно в хорошем качестве Описание: В канун Нового года в отделение травмы при разных обстоятельствах попадают несколько человек, включая генерала. С травмой половых ... 10 10 3
Торрент: Зарегистрирован [2018-06-27 13:34] · скачан: 13 раз
Статус: √ проверено
Размер: 1.46 GB
Как cкачать? Как скачать Операция «С новым годом» через торрент | qTorrent

28-11-2019 20:33  

Отключить всю рекламу на сайте


27-06-2018 15:58 Операция «С новым годом» Скачать торрент  

bubaRP писал(а):

Видео: 688x426@758x426

bubaRP, Правила оформления раздач в разделе «Фильмов»
Обратите внимание:

Цитата:

14.2 Скриншоты должны соответствовать размеру кадра раздаваемого видео файла, за исключением анаморфного изображения (в этом случае скриншоты должны быть сделаны с учетом анаморфирования).

Скриншоты заменил. Благодарю за раздачу.pb.wtf



    Дорогой пользователь! Огромная просьба, поблагодарите релизера, оцените раздачу и оставьте свои комментарий, если Вы скачали Операция «С новым годом» через торрент бесплатно! Внесите свою лепту в развитие PiratBit!
    Комментировать посты могут только пользователи прошедшие не сложную регистрацию
    Показать сообщения:    

    Операция «С новым годом» через торрент
    Скачать бесплатно Операция «С новым годом»
    Операция «С новым годом» скачать торрент
    Операция «С новым годом» смотреть онлайн
    Cкачать фильм Операция «С новым годом» бесплатно
    Операция «С новым годом» скачать торрент в хорошем качестве
    Операция «С новым годом» смотреть онлайн бесплатно в хорошем качестве


    Вы не можете начинать темы
    Вы не можете отвечать на сообщения
    Вы не можете редактировать свои сообщения
    Вы не можете удалять свои сообщения
    Вы не можете голосовать в опросах
    Вы не можете прикреплять файлы к сообщениям
    Вы можете скачивать файлы