Ссылка на приватное зеркало нашего сайта всего за 1$. Внимание количество ограничено!!!

2 сезон

iTunes

1 сезон

1

iTunes

iTunes

iTunes

1 сезон

RePack

30

ИГРА 18+

pack

ВАЖНО

!!Акция!!

Alien_RageХит недели

RePack

MK11
pack

Забери бонус

RePack

jed

!!Акция!!

Alien_Rage

RePack

fifa19

RePack

Assassins Creed: Odyssey

RePack

NEED FOR SPEED™ PAYBACK

4 сезон

9 сезон

Бесстыжие 9 сезон

Все сериалы

все сериалы на PB.wtf

RePack

FAR CRY 5
  

Криминальный талант (Серия 1-2 из 2) (Сергей Ашкенази) [1988 г., Детектив, DVDRip, Не требуется Русский] pb.wtf

Криминальный талант через торрент pb.wtf

Размер: 2.93 GB | Добавлен: 2 года 3 мес. назад | Торрент скачан:11 раз
Скачать  

27-06-2018 13:51 Криминальный талант Скачать торрент  

Криминальный талант
Год выпуска: 1988
Страна: СССР
Жанр: Детектив
Продолжительность: 01:16:10
Перевод: Не требуется Русский
Субтитры: Отсутствуют

Режиссер: Сергей Ашкенази

rating

В ролях: Алексей Жарков, Александра Захарова, Игорь Нефедов, Владимир Симонов, Владимир Коренев, Владислав Демченко, Людмила Давыдова, Алла Будницкая, Юрий Дубровин, Анна Назарьева, Евгений Ганелин, Елена Борзунова, Татьяна Бедова, Юрий Демич, Янислав Левинзон, Виктор Павловский, Елена Попова, Юрий Волович, Флёна Голейзовская

Описание: В городе появился преступник, который необычайно талантливо облапошивает граждан. Один за другим в милицию приходят пострадавшие, которые накануне познакомились в ресторане с девушкой, немного выпили и… Наутро очнулись с ужасной головной болью и абсолютно пустыми карманами! За дело берется молодой, но опытный следователь…

Качество: DVDRip
Формат: AVI
Видео кодек: DivX
Аудио кодек: AC3
Видео: Видео: DivX, 720x544 , 25.0fps, 2518 Kbps
Аудио#1: AC3 , 6 ch , 48 kHz , 448 kbps
Общее
Полное имя : D:Kriminalniy.talant.(2.serii.is.2).1988.DivX.DVDRip\Kriminalniy.talant.(2.serii.is.2).1988.DivX.DVDRip.1.avi
Формат : AVI
Формат/Информация : Audio Video Interleave
Размер файла : 1,37 Гбайт
Продолжительность : 1 ч. 5 м.
Общий поток : 2973 Кбит/сек
Программа кодирования : VirtualDubMod 1.5.4.1 (build 2178/release)
Библиотека кодирования : VirtualDubMod build 2178/release

Видео
Идентификатор : 0
Формат : MPEG-4 Visual
Параметр BVOP формата : 1
Параметр QPel формата : Нет
Параметр GMC формата : Без точки перехода
Параметр матрицы формата : Default (H.263)
Режим смешивания : Сжатый битовый поток
Идентификатор кодека : DX50
Идентификатор кодека/Подсказка : DivX 5
Продолжительность : 1 ч. 5 м.
Битрейт : 2518 Кбит/сек
Ширина : 720 пикселей
Высота : 544 пикселя
Соотношение сторон : 4:3
Частота кадров : 25,000 кадров/сек
Цветовое пространство : YUV
Субдискретизация насыщенности : 4:2:0
Битовая глубина : 8 бит
Тип развёртки : Прогрессивная
Метод сжатия : С потерями
Бит/(Пиксели*Кадры) : 0.257
Размер потока : 1,16 Гбайт (85%)
Библиотека кодирования : DivX 5.2.1 (WaffleDay) (UTC 2004-09-08)

Аудио
Идентификатор : 1
Формат : AC-3
Формат/Информация : Audio Coding 3
Расширение режима : CM (complete main)
Параметр Endianness формата : Big
Идентификатор кодека : 2000
Продолжительность : 1 ч. 5 м.
Вид битрейта : Постоянный
Битрейт : 448 Кбит/сек
Каналы : 6 каналов
Расположение каналов : Front: L C R, Side: L R, LFE
Частота : 48,0 КГц
Битовая глубина : 16 бит
Метод сжатия : С потерями
Размер потока : 211 Мбайт (15%)
Выравнивание : Разделение по промежуткам
Продолжительность промежутка : 96 мс. (2,40 видеокадра)
Время предзагрузки промежутка : 96 мс.

pb.wtf



Скачать Криминальный талант через торрент https://a.radikal.ru/a40/1806/13/7726e764fe53.jpg Скачать фильм Криминальный талант через торрент бесплантно в хорошем качестве Описание: В городе появился преступник, который необычайно талантливо облапошивает граждан. Один за другим в милицию приходят пострадавшие, ... 10 10 4
Info! Золотая раздача, скачанное не засчитывается.
Торрент: Зарегистрирован [2018-06-27 13:51] · скачан: 11 раз
Статус: √ проверено
Размер: 2.93 GB
Как cкачать? Как скачать Криминальный талант через торрент | qTorrent

28-11-2019 20:33  

Отключить всю рекламу на сайте

27-06-2018 15:47 Криминальный талант Скачать торрент  

Топик был перенесен из форума Оформление раздач (Кино, Видео и ТВ) в форум Наши сериалы


bober100pb.wtf



    Дорогой пользователь! Огромная просьба, поблагодарите релизера, оцените раздачу и оставьте свои комментарий, если Вы скачали Криминальный талант через торрент бесплатно! Внесите свою лепту в развитие PiratBit!
    Комментировать посты могут только пользователи прошедшие не сложную регистрацию
    Показать сообщения:    

    Криминальный талант через торрент
    Скачать бесплатно Криминальный талант
    Криминальный талант скачать торрент
    Криминальный талант смотреть онлайн
    Cкачать фильм Криминальный талант бесплатно
    Криминальный талант скачать торрент в хорошем качестве
    Криминальный талант смотреть онлайн бесплатно в хорошем качестве


    Вы не можете начинать темы
    Вы не можете отвечать на сообщения
    Вы не можете редактировать свои сообщения
    Вы не можете удалять свои сообщения
    Вы не можете голосовать в опросах
    Вы не можете прикреплять файлы к сообщениям
    Вы можете скачивать файлы