новый адрес
Ссылка на приватное зеркало всего за 1$. Внимание количество ограничено!!!

iTunes

1+1

iTunes

мы

iTunes

1

iTunes

Чернобыль

iTunes

Ральф против интернета

Лицензия

ПШазам

Лицензия

Оно 2

Лицензия

30
pack

Вам бонус

ВАЖНО

!!Акция!!

Alien_RageХит недели

RePack

Resident Evil 21

ИГРА 18+

pack

RePack

jed

!!Акция!!

Alien_Rage

RePack

fifa19

RePack

Assassins Creed: Odyssey

RePack

NEED FOR SPEED™ PAYBACK

3 сезон

9 сезон

Бесстыжие 9 сезон

Все сериалы

все сериалы на PB.wtf

RePack

FAR CRY 5
Ребята, катастрофически не хватает 1900р. для оплаты серверов за Октябрь (всвязи с блокировками трафик упал в 3 раза), 1-2р., выручайте.
  

Воры в законе (Юрий Кара) [1988 г., Триллер, криминал, DVDRip, Не требуется Русский] pb.wtf

Воры в законе через торрент pb.wtf

Качают: 1 [ 0 KB/s ]
Размер: 1.37 GB | Добавлен: 1 год 4 мес. назад | Торрент скачан:5 раз
Скачать  

27-06-2018 14:04 Воры в законе Скачать торрент  

Воры в законе
Год выпуска: 1988
Страна: СССР
Жанр: Триллер, криминал
Продолжительность: 01:29:21
Перевод: Не требуется Русский
Субтитры: Отсутствуют

Режиссер: Юрий Кара

rating

В ролях: Серкей Максачев, Константин Кищук, Станислав Коренев, Амаяк Акопян, Гиви Лежава, Зиновий Гердт, Нурбей Камкиа, Арнис Лицитис, Борис Щербаков, Владимир Стеклов, Валентин Гафт, Анна Самохина

Описание: Актуальный для конца восьмидесятых остросоциальный боевик о советской коррупции, расцветшей в благоприятных условиях черноморского побережья и паралича власти. Гангстерская история «из жизни кавказской мафии», где двое главарей враждующих группировок из южного приморского городка борются за сферы влияния. В эту борьбу оказывается, втянута роковая красавица Рита, повторившая на свой лад судьбу Кармен.

Качество: DVDRip
Формат: AVI
Видео кодек: XviD
Аудио кодек: AC3
Видео: Видео: XviD, 720x480 , 29.0fps, 1740 Kbps
Аудио#1: AC3 , 6 ch , 48 kHz , 448 kbps
Общее
Полное имя : D:Vory.v.zakone.1988.XviD.DVDRip..avi
Формат : AVI
Формат/Информация : Audio Video Interleave
Размер файла : 1,37 Гбайт
Продолжительность : 1 ч. 29 м.
Общий поток : 2200 Кбит/сек

Видео
Идентификатор : 0
Формат : MPEG-4 Visual
Профиль формата : Simple@L3
Параметр BVOP формата : Нет
Параметр QPel формата : Нет
Параметр GMC формата : Без точки перехода
Параметр матрицы формата : Default (H.263)
Идентификатор кодека : XVID
Идентификатор кодека/Подсказка : XviD
Продолжительность : 1 ч. 29 м.
Продолжительность оригинала : 1 ч. 29 м.
Битрейт : 1740 Кбит/сек
Ширина : 720 пикселей
Высота : 480 пикселей
Соотношение сторон : 3:2
Частота кадров : 29,970 кадров/сек
Стандарт вещания : NTSC
Цветовое пространство : YUV
Субдискретизация насыщенности : 4:2:0
Битовая глубина : 8 бит
Тип развёртки : Прогрессивная
Метод сжатия : С потерями
Бит/(Пиксели*Кадры) : 0.168
Размер потока : 1,09 Гбайт (79%)
Библиотека кодирования : XviD 1.1.2 (UTC 2006-11-01)

Аудио
Идентификатор : 1
Формат : AC-3
Формат/Информация : Audio Coding 3
Расширение режима : CM (complete main)
Параметр Endianness формата : Big
Идентификатор кодека : 2000
Продолжительность : 1 ч. 29 м.
Вид битрейта : Постоянный
Битрейт : 448 Кбит/сек
Каналы : 6 каналов
Расположение каналов : Front: L C R, Side: L R, LFE
Частота : 48,0 КГц
Битовая глубина : 16 бит
Метод сжатия : С потерями
Размер потока : 286 Мбайт (20%)
Выравнивание : Соединение по промежуткам
Продолжительность промежутка : 32 мс. (0,96 видеокадр)

pb.wtf



Скачать Воры в законе через торрент https://a.radikal.ru/a18/1806/d5/f5fc6f5e4062.jpg Скачать фильм Воры в законе через торрент бесплантно в хорошем качестве Описание: Актуальный для конца восьмидесятых остросоциальный боевик о советской коррупции, расцветшей в благоприятных условиях ... 10 10 5
Торрент: Зарегистрирован [2018-06-27 14:04] · скачан: 5 раз
Статус: √ проверено
Размер: 1.37 GB
Как cкачать? Как скачать Воры в законе через торрент | qTorrent

% Раздел Тема Автор DL S | L
Документальные фильмы и телепередачи [ 562 MB ] Русские сенсации - Исповедь вора в законе [2012 Документальный SATRip Оригинал] кэп Скачать
1 | 0
Документальные фильмы и телепередачи [ 2 GB ] Воры в законе. XX-XXI век [2007 документальный DVDRip Оригинал] кэп Скачать
1 | 0
Детективы, Боевики, Триллеры [ 712 MB ] Сухов Евгений - Я - вор в законе. Мафия и власть [Мурашко Игорь 2011 96 kbps MP3] Бумер Скачать
1 | 0
Документальные фильмы и телепередачи [ 487 MB ] Спецрасследование. Воры в законе [2010 Документальный истика SATRip] ss72ua Скачать
1 | 0
Информационно-аналитические и общественно-политические передачи [ 1.12 GB ] Воры в законе. Специальный корреспондент [2013 Документальный HDTVRip] nickson-82 Скачать
1 | 0
Документальные фильмы и телепередачи [ 835 MB ] Специальный корреспондент. Воры в законе [2013 документальный SATRip Оригинал] metanoia Скачать
1 | 0
Документальные фильмы и телепередачи [ 2.05 GB ] Воры в законе / Thieves by law [2010 документальный DVDRip Оригинал] metanoia Скачать
1 | 0


>> Переходим по ссылке <<
Автоматически подгузится скрипт который настроит ваш браузер на выигрыш!!
После настройки браузера вероятность выигрыша увеличется в 4.1-4,6 раза.
В течение 6 секунд вам откроется настроенный интерфейс казино, с повышенной вероятностью выигрыша.






Отзывы и комментарии о схеме читаем и пишем здесь: ---> Отзывы и комментарии о схеме

Новые благодарочки в телеграм довольных пользователей:
скриншот   скриншот   скриншот   скриншот   скриншот

27-06-2018 15:49 Воры в законе Скачать торрент  

Топик был перенесен из форума Оформление раздач (Кино, Видео и ТВ) в форум Кино СССР


-Lexx-pb.wtf



    Дорогой пользователь! Огромная просьба, поблагодарите релизера, оцените раздачу и оставьте свои комментарий, если Вы скачали Воры в законе через торрент бесплатно! Внесите свою лепту в развитие PiratBit!
    Комментировать посты могут только пользователи прошедшие не сложную регистрацию
    Показать сообщения:    

    Воры в законе через торрент
    Скачать бесплатно Воры в законе
    Воры в законе скачать торрент
    Воры в законе смотреть онлайн
    Cкачать фильм Воры в законе бесплатно
    Воры в законе скачать торрент в хорошем качестве
    Воры в законе смотреть онлайн бесплатно в хорошем качестве


    Вы не можете начинать темы
    Вы не можете отвечать на сообщения
    Вы не можете редактировать свои сообщения
    Вы не можете удалять свои сообщения
    Вы не можете голосовать в опросах
    Вы не можете прикреплять файлы к сообщениям
    Вы можете скачивать файлы