Ссылка на приватное зеркало всего за 1$. Внимание количество ограничено!!!

OK

1+1

iTunes

мы

OK

1

WEB-DLRip

Джокер

Пифагор

Ведьмак / The Witcher сериал

Лицензия

ПШазам

ОК

Оно 2

iTunes

30
pack

Вам бонус

ВАЖНО

!!Акция!!

Alien_RageХит недели

RePack

Resident Evil 21

ИГРА 18+

pack

RePack

jed

RePack

fifa19

RePack

Assassins Creed: Odyssey

RePack

NEED FOR SPEED™ PAYBACK

4 сезон

9 сезон

Бесстыжие 9 сезон

Все сериалы

все сериалы на PB.wtf

RePack

FAR CRY 5
  

Воскресенье / Sunday (Мишель Джой Ллойд) [2014, драма, мелодрама, WEB-DL 720p] MVO ["Синема УС"] pb.wtf

Воскресенье через торрент pb.wtf

Размер: 2.34 GB | Добавлен: 1 год 6 мес. назад | Торрент скачан:3 раза
Скачать  

27-06-2018 17:07 Воскресенье Скачать торрент  

Воскресенье / SundayГод выпуска: 2014
Страна: Новая Зеландия, Австралия
Жанр: драма, мелодрама
Продолжительность: 01:11:57
Перевод: Любительский (многоголосый) | "Синема УС"
Субтитры: отсутствуют

Режиссер: Мишель Джой Ллойд

rating

В ролях:

Камилль Кинэн, Дастин Клер, Джейкоб Томури, Стив Ригли, Мартин Ричардс, Марк Макнейл, Вики Макнейл, Джелл Макнейл, Джаспер Макнейл

Описание:

Ева беременна от Чарли, но они больше не вместе. После многих лет отношений и месяцев разлуки, у них есть двадцать четыре часа, чтобы найти способ двигаться дальше. Действие фильма происходит в городе Крайстчёрч, который располагается в Новой Зеландии год спустя разрушительных землетрясений, что уничтожили город. "Воскресенье" история разрушения и создания чего-то нового на месте обломков.

Качество: WEB-DL 720p
Формат: MKV

Видео: h.264, 4 265 kb/s, 1280x542
Аудио#1: Русский, (AC3, 2 ch, 384 Кбит/с)
скриншот  скриншот  скриншот  

Общее
Уникальный идентификатор : 226823300570998824535500114946432912198 (0xAAA494236B2251D4B68B40037BFB4B46)
Полное имя : D:\Sunday.2014.P.WEB-DL.72Op_KOSHARA.mkv
Формат : Matroska
Версия формата : Version 2
Размер файла : 2,34 Гбайт
Продолжительность : 1 ч. 11 м.
Режим общего битрейта : Переменный
Общий поток : 4651 Кбит/сек
Дата кодирования : UTC 2018-06-19 16:29:00
Программа кодирования : mkvmerge v8.3.0 ('Over the Horizon') 64bit
Библиотека кодирования : libebml v1.3.1 + libmatroska v1.4.2

Видео
Идентификатор : 1
Формат : AVC
Формат/Информация : Advanced Video Codec
Профиль формата : High@L4.1
Параметр CABAC формата : Да
Параметр RefFrames формата : 4 кадра
Идентификатор кодека : V_MPEG4/ISO/AVC
Продолжительность : 1 ч. 11 м.
Вид битрейта : Переменный
Битрейт : 4265 Кбит/сек
Максимальный битрейт : 5000 Кбит/сек
Ширина : 1280 пикселей
Высота : 542 пикселя
Соотношение сторон : 2,35:1
Режим частоты кадров : Постоянный
Частота кадров : 23,976 (24000/1001) кадра/сек
Стандарт вещания : Component
Цветовое пространство : YUV
Субдискретизация насыщенности : 4:2:0
Битовая глубина : 8 бит
Тип развёртки : Прогрессивная
Бит/(Пиксели*Кадры) : 0.251
Размер потока : 2,10 Гбайт (90%)
Default : Да
Forced : Нет
Цветовой диапазон : Limited
Основные цвета : BT.709
Характеристики трансфера : BT.709
Коэффициенты матрицы : BT.709

Аудио
Идентификатор : 2
Формат : AC-3
Формат/Информация : Audio Coding 3
Расширение режима : CM (complete main)
Параметр Endianness формата : Big
Идентификатор кодека : A_AC3
Продолжительность : 1 ч. 11 м.
Вид битрейта : Постоянный
Битрейт : 384 Кбит/сек
Каналы : 2 канала
Расположение каналов : Front: L R
Частота : 48,0 КГц
Частота кадров : 31,250 кадров/сек (1536 spf)
Метод сжатия : С потерями
Размер потока : 198 Мбайт (8%)
Default : Да
Forced : Нет

pb.wtf



Скачать Воскресенье через торрент http://img11.lostpic.net/2018/06/27/98392d28b6a88ba6dde9e9ed9bebd10e.jpg Скачать фильм Воскресенье через торрент бесплантно в хорошем качестве Описание: Ева беременна от Чарли, но они больше не вместе. После многих лет отношений и месяцев разлуки, у них есть двадцать четыре часа, ... 10 10 2
Торрент: Зарегистрирован [2018-06-27 17:07] · скачан: 3 раз
Статус: T временная
Размер: 2.34 GB
Как cкачать? Как скачать Воскресенье через торрент | qTorrent

% Раздел Тема Автор DL S | L
Фильмы до 2000 г. [ 2.19 GB ] Каждое Воскресенье / Any Given Sunday [1999 BDRip] [MVO] + [DVO] killermax2013 Скачать
1 | 0
T Фильмы (мультфильмы) cо спонсором показа (Новинки AVI/MKV) [ 1.37 GB ] Воскресенье / Sunday [2014 WEB-DLRip] MVO ["Синема УС"] bober100 Скачать
1 | 0
T Фильмы (мультфильмы) cо спонсором показа (Новинки AVI/MKV) [ 3.76 GB ] Болезнь в воскресенье / La enfermedad del domingo / Sunday's Illness [2018 WEB-DL 720p] MVO ["Синема УС"] bober100 Скачать
1 | 0
T Фильмы (мультфильмы) cо спонсором показа (Новинки AVI/MKV) [ 1.46 GB ] Болезнь в воскресенье / La enfermedad del domingo / Sunday's Illness [2018 WEB-DLRip] MVO ["Синема УС"] bober100 Скачать
1 | 0
Фильмы [HD 720p, 1080p] (Хороший звук DUB, MVO) [ 7.75 GB ] Первое воскресенье / First Sunday [2008 BDRip 1080p от еnvy / NNNB] MVO еnvy Скачать
1 | 1
Фильмы (Blu-ray, BD-Remux, HDDVD) [ 45.15 GB ] Каждое воскресенье / Any Given Sunday [1999 Blu-ray] [Director's Cut] Ворон Скачать
1 | 0
Фильмы 2013 [DVDrip, WEB-DLRip, HDrip] [ 1.43 GB ] Помни воскресенье / Remember Sunday [2013 HDTVRip многоголосый] _KaisiK_ Скачать
1 | 0

28-11-2019 20:33  

Отключить всю рекламу на сайте

    Дорогой пользователь! Огромная просьба, поблагодарите релизера, оцените раздачу и оставьте свои комментарий, если Вы скачали Воскресенье через торрент бесплатно! Внесите свою лепту в развитие PiratBit!
    Комментировать посты могут только пользователи прошедшие не сложную регистрацию
    Показать сообщения:    

    Воскресенье через торрент
    Скачать бесплатно Воскресенье
    Воскресенье скачать торрент
    Воскресенье смотреть онлайн
    Cкачать фильм Воскресенье бесплатно
    Воскресенье скачать торрент в хорошем качестве
    Воскресенье смотреть онлайн бесплатно в хорошем качестве


    Вы не можете начинать темы
    Вы не можете отвечать на сообщения
    Вы не можете редактировать свои сообщения
    Вы не можете удалять свои сообщения
    Вы не можете голосовать в опросах
    Вы не можете прикреплять файлы к сообщениям
    Вы можете скачивать файлы